Интервенция / Intervention (Мэри МакГакиан / Mary McGuckian) [2007, Великобритания, Драма, HDTVRip] MVO

 
Автор Сообщение

reversefile ®

Пол:

Стаж: 4 года 5 месяцев

Сообщений: 842

Откуда: ReverseFile.org



Награды: Нет

Торрент-статистика

Создавать темы 13-Авг-2014 10:03

[Цитировать]

Интервенция / Intervention
Страна: Великобритания
Жанр: Драма
Год выпуска: 2007
Продолжительность: 01:26:49
Перевод: Профессиональный (многоголосый закадровый)
Cубтитры: нет
Режиссер: Мэри МакГакиан / Mary McGuckian
В ролях: Руперт Грейвз, Дженнифер Тилли, Донна Д’Эррико, Джон Сессионс, Керри Фокс, Сара Стокбридж, Иэн Харт, Колм Фиор, Энди МакДауэлл, Чарльз Дэнс, Гэри Фармер, Рассел Минс, Билл Патерсон
Описание: Термином интервенция в психологии называют метод, при котором люди, входящие в ближайшее окружение зависимого человека, пытаются открыть ему глаза на проблему. Интервенция - это вмешательство по специальной методике убеждения с целью оказания эффективной помощи. Цель убеждения- разрушить психологические защитные барьеры так, чтобы реальность пробилась сквозь них. Показать человеку конкретные факты его поведения и их последствия.
События этого фильма разворачиваются в реабилитационном центре Виста-Клара, штат Нью-Мексика, США.
В центре - история Марка Берри, англичанина после интервенции, которого убедили пройти лечение по программе 12 шагов.
Марк плохо идет на контакт с психологами, не раскрывается на групповых занятиях, но затем наступает неделя семейной программы, во время которой пациенты должны разрешить конфликты со своими родными и близкими, и ситуация кардинально меняется. В присутствии своей жены Джейн Марк постоянно выходит из себя, каждый их разговор заканчивается скандалом. Помимо всего прочего, Марк тайно приглашает на семейную программу свою любовницу Памелу, что добавляет ситуации еще больше напряжения. Неоднозначность чувств Марка по отношению к обеим женщинам, причины его ужасных поступков, все становится кристально ясным к концу фильма, когда ценой больших усилий Марк все же вскрывает этот многолетний нарыв.
На фоне основной истории зритель узнает подробности об остальных пациентах клиники.
Алкоголика Джо, который много и красочно говорит о своей проблеме, но никак не может ее решить. Агрессивной истерички Сары, которая легко заводится по любому поводу. Гарри, который очень интересуется психологией и пытается применить знания из психологических книг на других пациентах.
Особняком стоят отношения четы психологов. Билл и Келли помогают другим людям справиться с психологическими проблемами, но насколько легко применять профессиональные знания на собственных отношениях? Они проецируют себя на пациентов и наоборот, обсуждая рабочие моменты скатываются в личное. Кажется, уж они-то должны были без труда разобраться с любой проблемой в своей семье. Но так ли это?
Это фильм о любви. О болезненной, рвущей душу на части любви. И о человеческом несовершенстве. Не каждому повезло взаимно полюбить кроткую добрую принцессу или отважного честного рыцаря. Любить идеального человека легко. Но не отступить, не закрыть глаза, а пытаться помочь любимому человеку справиться с зависимостью и не потерять свои чувства в процессе гораздо сложнее.
Доп. информация: За предоставленный рип благодарим Ledy_X
Сэмпл: https://yadi.sk/i/NFsvCREAX3oCD
Качество видео: HDTVRip
Формат видео: AVI
Видео: 720x400 (1.80:1), 25 fps, XviD build 50 ~2164 kbps avg, 0.30 bit/pixel
Аудио: 48 kHz, AC3 Dolby Digital, 2/0 (L,R) ch, ~192 kbps

MediaInfo

Интервенция - Intervention [Rip by Ledy_X].avi
Format : AVI
Format/Info : Audio Video Interleave
File size : 1.44 GiB
Duration : 1h 26mn
Overall bit rate : 2 366 Kbps
Movie name : Интервенция - Intervention [Rip by Ledy_X]
Director : Rip by Ledy_X
Writing application : VirtualDubMod 1.5.10.3 | www.virtualdub-fr.org || (build 2550/release)
Copyright : Edich2
Comment : RuTracker.org
Video
ID : 0
Format : MPEG-4 Visual
Format profile : Advanced Simple@L5
Format settings, BVOP : 1
Format settings, QPel : No
Format settings, GMC : No warppoints
Format settings, Matrix : Default (MPEG)
Codec ID : XVID
Codec ID/Hint : XviD
Duration : 1h 26mn
Bit rate : 2 165 Kbps
Width : 720 pixels
Height : 400 pixels
Display aspect ratio : 16:9
Frame rate : 25.000 fps
Color space : YUV
Chroma subsampling : 4:2:0
Bit depth : 8 bits
Scan type : Progressive
Compression mode : Lossy
Bits/(Pixel*Frame) : 0.301
Stream size : 1.31 GiB (91%)
Writing library : XviD 1.2.1 (UTC 2008-12-04)
Audio
ID : 1
Format : AC-3
Format/Info : Audio Coding 3
Mode extension : CM (complete main)
Format settings, Endianness : Big
Codec ID : 2000
Duration : 1h 26mn
Bit rate mode : Constant
Bit rate : 192 Kbps
Channel(s) : 2 channels
Channel positions : Front: L R
Sampling rate : 48.0 KHz
Bit depth : 16 bits
Compression mode : Lossy
Stream size : 119 MiB (8%)
Alignment : Split accross interleaves
Interleave, duration : 40 ms (1.00 video frame)
Interleave, preload duration : 500 ms

Скриншоты


[Профиль] [ЛС]

Создавать темы 06-Авг-2015 23:18 (спустя 11 месяцев 24 дня)

Топик был перенесен из форума Фильмы до 2014 года в форум Фильмы до 2012 года
sergej644
 
Показать сообщения:    

Текущее время: Сегодня 14:33

Часовой пояс: GMT



Вы не можете начинать темы
Вы не можете отвечать на сообщения
Вы не можете редактировать свои сообщения
Вы не можете удалять свои сообщения
Вы не можете голосовать в опросах
Вы не можете прикреплять файлы к сообщениям
Вы не можете скачивать файлы