Институт Аттикус / The Atticus Institute (Крис Спарлинг / Chris Sparling) [2015, США, ужасы, BDRip-AVC] Dub + Original (Eng) + Sub (Rus, Eng)

 
Автор Сообщение

TorrentFilm ®

Пол:

Стаж: 2 года

Сообщений: 7741



Награды: Нет

Торрент-статистика

Создавать темы 14-Июл-2015 00:11

[Цитировать]

Институт Аттикус
The Atticus Institute
«The only case of possession confirmed by the U.S. Government»


Страна: США
Жанр: ужасы
Год выпуска: 2015
Продолжительность: 01:22:49
Перевод: Профессиональный (полное дублирование) [Лицензия]
Субтитры: русские, английские (Full, SDH)
Оригинальная аудиодорожка: Английский
Режиссер: Крис Спарлинг / Chris Sparling
В ролях: Уильям Мапотер, Джулиан Акоста, Энн Бетанкур, Карлос Е. Кампос, Джейк Карпентер, Хит Сентаццо, Брайан Ченоуэт, Ханна Коули, Аарон Крэвен, Динарте де Фрейтас, Лэндалл Гулсби, Гарри Гронер
Описание:
Генри Уэст основал институт Аттикус, который занимается исследованием людей с паранормальными способностями - телекинез, телепатия и т. п. За всю его деятельность Уэст видел много разных случаев, но с появлением женщины Джудит Уинстед, всё что он видел ранее стало малозначительным. Сотрудники института были поражены ее сверх способностями, что привлекло внимание военных США, и дальнейшие исследования проводились под контролем армии. Все дальнейшие исследования Джудит дали понять докторам, что ее способности это происки дьявола и потусторонних сил, которые находились внутри женщины. Военные решают использовать Джудит в качестве оружия. Но вскоре они понимают, что не со всякой властью они могут справиться.



Релиз:
Автор рипа: Stalker oK
Сэмпл
Качество видео: BDRip-AVC [Blu-ray Remux 1080p-kinozal]
Формат видео: MKV
Видео кодек: AVC
Аудио кодек: AC3
Видео: 1743 Кбит/сек, 1032x558 (16:9), 23,976 кадр/сек, AVC
Аудио №1: русский, 384 Кбит/сек, 48 КГц, 16 бит, 5.1, AC3
Аудио №2: английский, 384 Кбит/сек, 48 КГц, 16 бит, 5.1, AC3
Навигация по главам: есть

MediaInfo

Общее
Уникальный идентификатор : 198453019223441543501919556522687254946 (0x954CA94637142709BF7F91F00ABED1A2)
Полное имя : M:\Рипы\Институт Аттикус\The.Atticus.Institute.2015.BDRip-AVC.Dub.1.45Gb...stalkerok.new-team.mkv
Формат : Matroska
Размер файла : 1,45 Гбайт
Продолжительность : 1 ч. 22 м.
Общий поток : 2512 Кбит/сек
Название фильма : The Atticus Institute, 2015 (New-Team) (Rip by Stalker oK)
Дата кодирования : UTC 2015-07-12 21:55:51
Программа кодирования : mkvmerge v7.9.0 ('Birds') 64bit
Библиотека кодирования : libebml v1.3.1 + libmatroska v1.4.2
Видео
Идентификатор : 1
Формат : AVC
Формат/Информация : Advanced Video Codec
Профиль формата : High@L4.1
Параметр CABAC формата : Да
Параметр ReFrames формата : 12 кадры
Идентификатор кодека : V_MPEG4/ISO/AVC
Продолжительность : 1 ч. 22 м.
Битрейт : 1743 Кбит/сек
Ширина : 1032 пикс.
Высота : 558 пикс.
Соотношение сторон : 16:9
Частота кадров : 23,976 кадр/сек
Цветовое пространство : YUV
Подвыборка цветности : 4:2:0
Битовая глубина : 8 бит
Тип развёртки : Прогрессивная
Бит/(Пиксели*Кадры) : 0.126
Размер потока : 1004 Мбайт (67%)
Заголовок : The Atticus Institute, 2015 (New-Team) (Rip by Stalker oK)
Библиотека кодирования : x264 core 146 r2538kMod 121396c
Настройки программы : cabac=1 / ref=12 / deblock=1:-3:-2 / analyse=0x3:0x133 / me=umh / subme=11 / psy=1 / fade_compensate=0.00 / psy_rd=1.05:0.08 / mixed_ref=1 / me_range=32 / chroma_me=1 / trellis=2 / 8x8dct=1 / cqm=0 / deadzone=21,11 / fast_pskip=0 / chroma_qp_offset=-3 / threads=12 / lookahead_threads=3 / sliced_threads=0 / nr=0 / decimate=0 / interlaced=0 / bluray_compat=0 / constrained_intra=0 / fgo=0 / bframes=14 / b_pyramid=2 / b_adapt=2 / b_bias=0 / direct=3 / weightb=1 / open_gop=0 / weightp=2 / keyint=240 / keyint_min=23 / scenecut=40 / intra_refresh=0 / rc_lookahead=40 / rc=2pass / mbtree=0 / bitrate=1743 / ratetol=1.0 / qcomp=0.70 / qpmin=0 / qpmax=69 / qpstep=4 / cplxblur=20.0 / qblur=0.5 / vbv_maxrate=50000 / vbv_bufsize=62500 / nal_hrd=none / filler=0 / ip_ratio=1.40 / pb_ratio=1.30 / aq=3:0.85
Аудио #1
Идентификатор : 2
Формат : AC-3
Формат/Информация : Audio Coding 3
Расширение режима : CM (complete main)
Идентификатор кодека : A_AC3
Продолжительность : 1 ч. 22 м.
Вид битрейта : Постоянный
Битрейт : 384 Кбит/сек
Канал(ы) : 6 канала(ов)
Расположение каналов : Front: L C R, Side: L R, LFE
Частота : 48,0 КГц
Битовая глубина : 16 бит
Метод сжатия : С потерями
Размер потока : 227 Мбайт (15%)
Язык : Russian
Аудио #2
Идентификатор : 3
Формат : AC-3
Формат/Информация : Audio Coding 3
Расширение режима : CM (complete main)
Идентификатор кодека : A_AC3
Продолжительность : 1 ч. 22 м.
Вид битрейта : Постоянный
Битрейт : 384 Кбит/сек
Канал(ы) : 6 канала(ов)
Расположение каналов : Front: L C R, Side: L R, LFE
Частота : 48,0 КГц
Битовая глубина : 16 бит
Метод сжатия : С потерями
Размер потока : 227 Мбайт (15%)
Язык : English
Текст #1
Идентификатор : 4
Формат : UTF-8
Идентификатор кодека : S_TEXT/UTF8
Идентификатор кодека/Информация : UTF-8 Plain Text
Язык : Russian
Текст #2
Идентификатор : 5
Формат : UTF-8
Идентификатор кодека : S_TEXT/UTF8
Идентификатор кодека/Информация : UTF-8 Plain Text
Заголовок : Full
Язык : English
Текст #3
Идентификатор : 6
Формат : UTF-8
Идентификатор кодека : S_TEXT/UTF8
Идентификатор кодека/Информация : UTF-8 Plain Text
Заголовок : SDH
Язык : English
Меню
00:00:00.000 : en:Chapter 01
00:03:02.098 : en:Chapter 02
00:10:45.603 : en:Chapter 03
00:19:56.653 : en:Chapter 04
00:26:01.685 : en:Chapter 05
00:34:06.753 : en:Chapter 06
00:39:49.095 : en:Chapter 07
00:49:38.225 : en:Chapter 08
00:55:49.637 : en:Chapter 09
01:02:28.161 : en:Chapter 10
01:09:00.094 : en:Chapter 11
01:19:37.564 : en:Chapter 12

Скриншоты

[Профиль] [ЛС]
Кто просматривает тему:

Форум Тема Автор Размер
National Geographic NG: Инстинкт выживания / Primal Survivor [сезон 1 cерии 1-9 из 9] (Энтони Баруэлл, Розалинд Бэйн / Anthony Barwell, Rosalind Bain) [2015 г., Документальный, SATRip] skorpionN 5.52 GB
Viasat Nature Viasat Nature: Животный инстинкт / Wild Instinct [сезоны 2-3 серии 1-6 из 6] (Фитджеральд Джего) [2015 г., Документальный, природа, флора, фауна, SATRip] skorpionN 4.34 GB
Viasat Nature Viasat Nature: Животный инстинкт / Wild Instinct [сезоны: 2 3(3) 3 3(3)] (Фитджеральд Джего) [2015 г., Документальный, природа, флора, фауна, HDTVRip 720p] skorpionN 11.11 GB
Документальные HD Адлерский институт приматологии (RTGHD) [2013, Документальный, HDTV 1080i] TorrentFilm 1.56 GB
Зарубежные мультфильмы Безграничный Бэтмен: Животные инстинкты / Batman Unlimited: Animal Instincts (2015) BDRemux 1080p Russian Mafia 12.68 GB
Фантастика и фэнтези Вячеслав Шалыгин - Инстинкт гнева (2016) MP3 Swager 375 MB
Фильмы (HD Rips | 720p, 1080p) Институт Аттикус / The Atticus Institute (2015) BDRip 1080p | iTunes достали все 5.85 GB
Фильмы 2015 года Институт Аттикус / The Atticus Institute (2015) HDRip | Лицензия достали все 1.37 GB
Показать сообщения:    

Текущее время: Сегодня 06:25

Часовой пояс: GMT



Вы не можете начинать темы
Вы не можете отвечать на сообщения
Вы не можете редактировать свои сообщения
Вы не можете удалять свои сообщения
Вы не можете голосовать в опросах
Вы не можете прикреплять файлы к сообщениям
Вы не можете скачивать файлы