Инспектор Винтер / Kommissarie Winter [s01] (2010) DVDRip-AVC от Koenig | P

 
Автор Сообщение

достали все ®

Пол:

Стаж: 1 год 8 месяцев

Сообщений: 6600



Награды: 12 (Подробнее)

Mega Seeder 1 (Количество: 1) Mega Releaser 2 (Количество: 1) Top Releaser 2 (Количество: 1)
Торрент-статистика

Создавать темы 19-Май-2016 08:46

[Цитировать]

Информация о фильме
Название: Инспектор Винтер
Оригинальное название: Kommissarie Winter
Год выхода: 2010
Жанр: Криминал
Режиссер: Эмильяно Гессенс, Тригве Аллистер Дайсен, Молли Хартлеб
В ролях: Магнус Креппер, Петер Андерссон, Аманда Оомс, Шэрон Дайалл, Йенс Хультен, Стиг Энгстрём, Сэнна Нюгрен
О фильме:
Рано утром в магазине в одном из северных пригородов Гётеборга, где проживают иммигранты, найдены трупы трех жестоко застреленных мужчин. Двое работали в этом магазине, третий был их приятелем. У полицейских возникает много вопросов. Но никто не хочет отвечать на вопросы. Такое чувство, что никто ничего не видел, ничего не слышал и ничего не знает. Расследуя это преступление, Винтер чувствует себя иностранцем в родной Швеции...

Содержание

01. Прекрасная земля. Часть 1
02. Прекрасная земля. Часть 2
03. Комната номер 10. Часть 1
04. Комната номер 10. Часть 2
05. Почти покойник. Часть 1
06. Почти покойник. Часть 2
07. Последняя зима. Часть 1
08. Последняя зима. Часть 2

Страна: Швеция
Студия: SVT Drama, Göteborg
Продолжительность: 8 x ~ 00:58:00
Перевод: Профессиональный многоголосый (TVXXI)
Файл
Кодек: x264
Качество: DVDRip-AVC
Видео: MPEG-4 AVC, ~2560 Кбит/с, 720x576@1024x576, 25 кадр/с
Звук: MP3, 2 ch, 128 Кбит/с

MediaInfo

Общее
Уникальный идентификатор : 244567506331868164211296199225059726367 (0xB7FDFD06EBF12EBBB0BD5C542A5A541F)
Полное имя : Kommissarie WinterKommissarie.Winter.E1.mkv
Формат : Matroska
Версия формата : Version 4 / Version 2
Размер файла : 1,08 Гбайт
Продолжительность : 57 м.
Общий поток : 2683 Кбит/сек
Дата кодирования : UTC 2016-04-22 08:19:00
Программа кодирования : mkvmerge v7.7.0 ('Six Voices') 32bit built on Feb 28 2015 23:23:00
Библиотека кодирования : libebml v1.3.1 + libmatroska v1.4.2
Attachements : cover.jpg
DURATION : 00:57:33.096000000
NUMBER_OF_FRAMES : 143879
NUMBER_OF_BYTES : 55249536
_STATISTICS_WRITING_APP : mkvmerge v7.7.0 ('Six Voices') 32bit built on Feb 28 2015 23:23:00
_STATISTICS_WRITING_DATE_UTC : 2016-04-22 08:19:00
_STATISTICS_TAGS : BPS DURATION NUMBER_OF_FRAMES NUMBER_OF_BYTES
Видео
Идентификатор : 1
Формат : AVC
Формат/Информация : Advanced Video Codec
Профиль формата : High@L4.1
Параметр CABAC формата : Да
Параметр ReFrames формата : 7 кадров
Идентификатор кодека : V_MPEG4/ISO/AVC
Продолжительность : 57 м.
Битрейт : 2553 Кбит/сек
Ширина : 720 пикселей
Высота : 576 пикселей
Соотношение сторон : 16:9
Режим частоты кадров : Постоянный
Частота кадров : 25,000 кадров/сек
Стандарт вещания : PAL
Цветовое пространство : YUV
Субдискретизация насыщенности : 4:2:0
Битовая глубина : 8 бит
Тип развёртки : Прогрессивная
Бит/(Пиксели*Кадры) : 0.246
Размер потока : 1,01 Гбайт (93%)
Библиотека кодирования : x264 core 146 r2538 121396c
Настройки программы : cabac=1 / ref=7 / deblock=1:-3:-3 / analyse=0x3:0x113 / me=umh / subme=9 / psy=1 / psy_rd=1.10:0.00 / mixed_ref=1 / me_range=32 / chroma_me=1 / trellis=2 / 8x8dct=1 / cqm=0 / deadzone=21,11 / fast_pskip=0 / chroma_qp_offset=-2 / threads=3 / lookahead_threads=1 / sliced_threads=0 / nr=0 / decimate=1 / interlaced=0 / bluray_compat=0 / constrained_intra=0 / bframes=8 / b_pyramid=2 / b_adapt=2 / b_bias=0 / direct=3 / weightb=1 / open_gop=0 / weightp=2 / keyint=250 / keyint_min=25 / scenecut=40 / intra_refresh=0 / rc_lookahead=40 / rc=2pass / mbtree=1 / bitrate=2553 / ratetol=1.0 / qcomp=0.60 / qpmin=10 / qpmax=51 / qpstep=4 / cplxblur=20.0 / qblur=0.5 / vbv_maxrate=50000 / vbv_bufsize=62500 / nal_hrd=none / filler=0 / ip_ratio=1.40 / aq=1:1.00
Default : Да
Forced : Нет
Аудио
Идентификатор : 2
Формат : MPEG Audio
Версия формата : Version 1
Профиль формата : Layer 3
Режим : Joint stereo
Расширение режима : MS Stereo
Идентификатор кодека : A_MPEG/L3
Идентификатор кодека/Подсказка : MP3
Продолжительность : 57 м.
Вид битрейта : Постоянный
Битрейт : 128 Кбит/сек
Каналы : 2 канала
Частота : 48,0 КГц
Метод сжатия : С потерями
Задержка видео : 8 мс.
Размер потока : 52,7 Мбайт (5%)
Язык : Russian
Default : Да
Forced : Нет

Скриншоты

[Профиль] [ЛС]
Показать сообщения:    

Текущее время: Сегодня 17:39

Часовой пояс: GMT



Вы не можете начинать темы
Вы не можете отвечать на сообщения
Вы не можете редактировать свои сообщения
Вы не можете удалять свои сообщения
Вы не можете голосовать в опросах
Вы не можете прикреплять файлы к сообщениям
Вы не можете скачивать файлы