Инспектор Винтер / Kommissarie Winter [S01] (2010) DVDRip от ТВХХІ | P

 
Автор Сообщение

достали все ®

Пол:

Стаж: 1 год 8 месяцев

Сообщений: 6577



Награды: 12 (Подробнее)

Mega Releaser 3 (Количество: 1) Mega Releaser 2 (Количество: 1) Mega Seeder 5 (Количество: 1)
Торрент-статистика

Создавать темы 01-Май-2016 07:38

[Цитировать]

Информация о фильме
Название: Инспектор Винтер
Оригинальное название: Kommissarie Winter
Год выхода: 2010
Жанр: криминал
Режиссер: Эмильяно Гессенс, Тригве Аллистер Дайсен, Молли Хартлеб
В ролях: Магнус Креппер, Петер Андерссон, Аманда Оомс, Шэрон Дайалл, Йенс Хультен, Стиг Энгстрём, Сэнна Нюгрен
О фильме:
Рано утром в магазине в одном из северных пригородов Гётеборга, где проживают иммигранты, найдены трупы трех жестоко застреленных мужчин. Двое работали в этом магазине, третий был их приятелем. У полицейских возникает много вопросов. Но никто не хочет отвечать на вопросы. Такое чувство, что никто ничего не видел, ничего не слышал и ничего не знает. Расследуя это преступление, Винтер чувствует себя иностранцем в родной Швеции...

Страна: Швеция
Студия: SVT Drama, Göteborg
Продолжительность: 8 x ~01:00:00
Перевод: Профессиональный многоголосый [ТВХХІ]
Файл
Кодек: XviD
Качество: DVDRip
Видео: 688x384, 25.000 fps, 1 561 Kbps
Аудио 1: MP3, 2 channels, 128 Kbps [Русский]
Аудио 2: MP3, 2 channels, 128 Kbps [Шведский]

MediaInfo

General
Complete name : /home/roma/Відео/Инспектор Винтер (Kommissarie Winter )/1x01 - Vanaste Land. Del 1 (Прекрасная земля. Часть 1).avi
Format : AVI
Format/Info : Audio Video Interleave
File size : 754 MiB
Duration : 57mn 34s
Overall bit rate : 1 832 Kbps
Writing application : VirtualDubMod 1.5.10.2 (build 2540/release)
Writing library : VirtualDubMod build 2540/release
Video
ID : 0
Format : MPEG-4 Visual
Format profile : Advanced Simple@L5
Format settings, BVOP : 1
Format settings, QPel : No
Format settings, GMC : No warppoints
Format settings, Matrix : Default (H.263)
Codec ID : XVID
Codec ID/Hint : XviD
Duration : 57mn 34s
Bit rate : 1 561 Kbps
Width : 688 pixels
Height : 384 pixels
Display aspect ratio : 16:9
Frame rate : 25.000 fps
Color space : YUV
Chroma subsampling : 4:2:0
Bit depth : 8 bits
Scan type : Progressive
Compression mode : Lossy
Bits/(Pixel*Frame) : 0.236
Stream size : 643 MiB (85%)
Writing library : XviD 1.1.2 (UTC 2006-11-01)
Audio #1
ID : 1
Format : MPEG Audio
Format version : Version 1
Format profile : Layer 3
Mode : Joint stereo
Mode extension : MS Stereo
Codec ID : 55
Codec ID/Hint : MP3
Duration : 57mn 34s
Bit rate mode : Constant
Bit rate : 128 Kbps
Channel(s) : 2 channels
Sampling rate : 48.0 KHz
Compression mode : Lossy
Stream size : 52.7 MiB (7%)
Alignment : Aligned on interleaves
Interleave, duration : 40 ms (1.00 video frame)
Interleave, preload duration : 504 ms
Audio #2
ID : 2
Format : MPEG Audio
Format version : Version 1
Format profile : Layer 3
Mode : Joint stereo
Mode extension : MS Stereo
Codec ID : 55
Codec ID/Hint : MP3
Duration : 57mn 34s
Bit rate mode : Constant
Bit rate : 128 Kbps
Channel(s) : 2 channels
Sampling rate : 48.0 KHz
Compression mode : Lossy
Stream size : 52.7 MiB (7%)
Alignment : Aligned on interleaves
Interleave, duration : 40 ms (1.00 video frame)
Interleave, preload duration : 504 ms
Writing library : LAME3.97
Encoding settings : -m j -V 4 -q 2 -lowpass 17 -b 128
Семпл

Скриншоты

Релиз от: ТВХХІ
[Профиль] [ЛС]
Показать сообщения:    

Текущее время: Сегодня 06:15

Часовой пояс: GMT



Вы не можете начинать темы
Вы не можете отвечать на сообщения
Вы не можете редактировать свои сообщения
Вы не можете удалять свои сообщения
Вы не можете голосовать в опросах
Вы не можете прикреплять файлы к сообщениям
Вы не можете скачивать файлы