Иногда они возвращаются / Sometimes They Come Back (1991) BDRip 1080p | НТВ+

 
Автор Сообщение

sergej644 ®

Пол:

Стаж: 4 года 11 месяцев

Сообщений: 6046

Откуда: Soviet Union



Награды: Нет

Торрент-статистика

Создавать темы 17-Фев-2015 18:44

[Цитировать]

Информация о фильме
Год выпуска: 1991
Жанр: ужасы, триллер, драма
Режиссер: Том МакЛуглин
В ролях: Тим Матсон, Брук Адамс, Роберт Раслер, Крис Диметрал, Роберт Хай Горман, Уильям Сандерсон, Николас Сэдлер, Бентли Митчэм, Мэтт Нолан, Тасиа Валенза
Описание:
Зрелый мужчина приезжает вместе с семьей (женой и сыном) в город, где прошло его детство. В детстве он стал свидетелем убийства своего брата, и того, что поезд раздавил убийц брата. С появлением героя в городе, появляются и трое убийц брата…

Выпущено: США
Перевод: профессиональный (многоголосый)
Субтитры: английские
Продолжительность: 01:38:06
Файл
Качество: BDRip 1080p
Контейнер: MKV
Видео: 1920x1080, MPEG-4 AVC Video, 23.976 fps, ~8500 kbps
Аудио№1: Russian: 48 kHz, АС3, 2 ch, 192 kbps [многоголосый, НТВ+]
Аудио№2: English: 48 kHz, АС3, 2 ch, 192 kbps [оригинал]

M/I

General
Unique ID : 247761266576461567200037299654276822344 (0xBA6515907BBF760C8C8800F6CAEA3548)
Complete name : F:FILMSInogda,Oni.Vozvrashajutsja.(1991).Blu-ray.1080p.[-=DoMiNo=-].mkv
Format : Matroska
Format version : Version 4 / Version 2
File size : 6.08 GiB
Duration : 1h 38mn
Overall bit rate : 8 877 Kbps
Encoded date : UTC 2015-02-11 03:58:10
Writing application : mkvmerge v7.6.0 ('Garden of Dreams') 64bit built on Feb 8 2015 13:04:34
Writing library : libebml v1.3.1 + libmatroska v1.4.2
DURATION : 01:38:06.464000000
NUMBER_OF_FRAMES : 183952
NUMBER_OF_BYTES : 141275136
_STATISTICS_WRITING_APP : mkvmerge v7.6.0 ('Garden of Dreams') 64bit built on Feb 8 2015 13:04:34
_STATISTICS_WRITING_DATE_UT : 2015-02-11 03:58:10
_STATISTICS_TAGS : BPS DURATION NUMBER_OF_FRAMES NUMBER_OF_BYTES
Video
ID : 1
Format : AVC
Format/Info : Advanced Video Codec
Format profile : High@L4.1
Format settings, CABAC : Yes
Format settings, ReFrames : 4 frames
Codec ID : V_MPEG4/ISO/AVC
Duration : 1h 38mn
Bit rate : 8 500 Kbps
Width : 1 920 pixels
Height : 1 080 pixels
Display aspect ratio : 16:9
Frame rate mode : Constant
Frame rate : 23.976 fps
Color space : YUV
Chroma subsampling : 4:2:0
Bit depth : 8 bits
Scan type : Progressive
Bits/(Pixel*Frame) : 0.171
Stream size : 5.70 GiB (94%)
Title : Inogda,Oni.Vozvrashajutsja.(1991).Blu-ray.1080p.[-=DoMiNo=-]
Writing library : x264 core 144 r2525M 40bb568
Encoding settings : cabac=1 / ref=3 / deblock=1:-3:-3 / analyse=0x3:0x113 / me=umh / subme=11 / psy=1 / psy_rd=1,00:0,50 / mixed_ref=1 / me_range=32 / chroma_me=1 / trellis=2 / 8x8dct=1 / cqm=0 / deadzone=21,11 / fast_pskip=0 / chroma_qp_offset=-3 / threads=12 / lookahead_threads=1 / sliced_threads=0 / nr=0 / decimate=1 / interlaced=0 / bluray_compat=0 / constrained_intra=0 / bframes=6 / b_pyramid=2 / b_adapt=2 / b_bias=0 / direct=3 / weightb=1 / open_gop=0 / weightp=2 / keyint=230 / keyint_min=23 / scenecut=40 / intra_refresh=0 / rc=2pass / mbtree=0 / bitrate=8500 / ratetol=1,0 / qcomp=0,60 / qpmin=1 / qpmax=69 / qpstep=4 / cplxblur=20,0 / qblur=0,5 / ip_ratio=1,40 / pb_ratio=1,30 / aq=3:1,00
Language : English
Default : Yes
Forced : No
Color primaries : BT.709
Transfer characteristics : BT.709
Matrix coefficients : BT.709
Color range : Limited
DURATION : 01:38:06.464000000
NUMBER_OF_FRAMES : 141134
NUMBER_OF_BYTES : 6247894805
_STATISTICS_WRITING_APP : mkvmerge v7.6.0 ('Garden of Dreams') 64bit built on Feb 8 2015 13:04:34
_STATISTICS_WRITING_DATE_UT : 2015-02-11 03:58:10
_STATISTICS_TAGS : BPS DURATION NUMBER_OF_FRAMES NUMBER_OF_BYTES
Audio #1
ID : 2
Format : AC-3
Format/Info : Audio Coding 3
Mode extension : CM (complete main)
Format settings, Endianness : Big
Codec ID : A_AC3
Duration : 1h 38mn
Bit rate mode : Constant
Bit rate : 192 Kbps
Channel(s) : 2 channels
Channel positions : Front: L R
Sampling rate : 48.0 KHz
Bit depth : 16 bits
Compression mode : Lossy
Stream size : 135 MiB (2%)
Title : Russian: 48 kHz, АС3, 2 ch, 192 kbps [многоголосый, НТВ+]
Language : Russian
Default : Yes
Forced : No
DURATION : 01:38:06.432000000
NUMBER_OF_FRAMES : 183952
NUMBER_OF_BYTES : 141275136
_STATISTICS_WRITING_APP : mkvmerge v7.6.0 ('Garden of Dreams') 64bit built on Feb 8 2015 13:04:34
_STATISTICS_WRITING_DATE_UT : 2015-02-11 03:58:10
_STATISTICS_TAGS : BPS DURATION NUMBER_OF_FRAMES NUMBER_OF_BYTES
Audio #2
ID : 3
Format : AC-3
Format/Info : Audio Coding 3
Mode extension : CM (complete main)
Format settings, Endianness : Big
Codec ID : A_AC3
Duration : 1h 38mn
Bit rate mode : Constant
Bit rate : 192 Kbps
Channel(s) : 2 channels
Channel positions : Front: L R
Sampling rate : 48.0 KHz
Bit depth : 16 bits
Compression mode : Lossy
Delay relative to video : -83ms
Stream size : 135 MiB (2%)
Title : English: 48 kHz, АС3, 2 ch, 192 kbps [оригинал]
Language : English
Default : No
Forced : No
--

Скриншоты

--
[Профиль] [ЛС]
Кто просматривает тему:

Форум Тема Автор Размер
Фильмы (HD Rips | 720p, 1080p) Иногда великая идея... / Sometimes a Great Notion (1970) BDRip 1080p sergej644 9.69 GB
Показать сообщения:    

Текущее время: Сегодня 05:19

Часовой пояс: GMT



Вы не можете начинать темы
Вы не можете отвечать на сообщения
Вы не можете редактировать свои сообщения
Вы не можете удалять свои сообщения
Вы не можете голосовать в опросах
Вы не можете прикреплять файлы к сообщениям
Вы не можете скачивать файлы