Иннокентий Смоктуновский. За Гранью Разума (Ирина Крячко) [2015, Документальный, HDTV 720p]

 
Автор Сообщение

TorrentFilm ®

Пол:

Стаж: 2 года

Сообщений: 7741



Награды: Нет

Торрент-статистика

Создавать темы 25-Апр-2015 00:02

[Цитировать]

Иннокентий Смоктуновский. За Гранью Разума- Год выпуска: 2015
Страна: Россия
Канал: Первый Канал HD | ЗАО "Телекомпания "Останкино"
Жанр: Документальный
Продолжительность: 0:49:58
Автор: Валентина Пиманова
Режиссер: Ирина Крячко-Описание: Смоктуновский был актером, нарушающим все правила. Он мог быть и своим в доску, и в то же время не узнать коллегу, с которым еще вчера репетировал. Он казался то барином, то крепостным. То беспечным гением, то завистливым злодеем. "Рожу я могу скорчить любую. Какая вам нужна?" – шутил сам Смоктуновский.-Автор рипа: lrn
Автор записи: riper.am
Сэмпл: sendfile-Тип релиза: HDTV 720p
Контейнер: MKV
Видео: 1280x720 (16:9), 25,000 fps, H264, ~4000 kbps avg, ~0.174 bit/pixel
Аудио: 48 kHz, AC3 Dolby Digital, 3/2 (L,C,R,l,r) + LFE ch, ~384.00 kbps avg-

MediaInfo

GeneralUnique ID : 219486520426558647181410509792443191985 (0xA51F90F30005672392490763317952B1)Complete name : E:\uTorrent.Temp\Temp\Innokentiy.Smoktunovskiy.Za.Granyu.Razuma.2015.HDTV.720p.x264-lrn.mkvFormat : MatroskaFormat version : Version 4 / Version 2File size : 1.53 GiBDuration : 49mn 58sOverall bit rate : 4 386 KbpsMovie name : Innokentiy.Smoktunovskiy.Za.Granyu.Razuma.2015.HDTV.720p.x264-lrnEncoded date : UTC 2010-02-22 21:41:31Writing application : mkvmerge v5.9.0 ('On The Loose') built on Dec 9 2012 15:37:01Writing library : libebml v1.3.0 + libmatroska v1.4.0DURATION : 00:49:58.680000000NUMBER_OF_FRAMES : 74967NUMBER_OF_BYTES : 1499333929_STATISTICS_WRITING_APP : mkvmerge v7.7.0 ('Six Voices') 32bit built on Feb 28 2015 23:23:00_STATISTICS_WRITING_DATE_UT : 2015-04-05 09:00:15_STATISTICS_TAGS : BPS DURATION NUMBER_OF_FRAMES NUMBER_OF_BYTES
VideoID : 1Format : AVCFormat/Info : Advanced Video CodecFormat profile : High@L4.1Format settings, CABAC : YesFormat settings, ReFrames : 8 framesCodec ID : V_MPEG4/ISO/AVCDuration : 49mn 58sBit rate : 4 000 KbpsWidth : 1 280 pixelsHeight : 720 pixelsDisplay aspect ratio : 16:9Frame rate mode : ConstantFrame rate : 25.000 fpsColor space : YUVChroma subsampling : 4:2:0Bit depth : 8 bitsScan type : ProgressiveBits/(Pixel*Frame) : 0.174Stream size : 1.37 GiB (89%)Writing library : x264 core 146 r2538 121396cEncoding settings : cabac=1 / ref=8 / deblock=1:-3:-3 / analyse=0x3:0x133 / me=umh / subme=9 / psy=1 / psy_rd=1.00:0.00 / mixed_ref=1 / me_range=32 / chroma_me=1 / trellis=2 / 8x8dct=1 / cqm=0 / deadzone=21,11 / fast_pskip=1 / chroma_qp_offset=-2 / threads=12 / lookahead_threads=2 / sliced_threads=0 / nr=0 / decimate=1 / interlaced=0 / bluray_compat=0 / constrained_intra=0 / bframes=8 / b_pyramid=2 / b_adapt=2 / b_bias=0 / direct=3 / weightb=1 / open_gop=0 / weightp=2 / keyint=250 / keyint_min=25 / scenecut=40 / intra_refresh=0 / rc_lookahead=50 / rc=2pass / mbtree=1 / bitrate=4000 / ratetol=1.0 / qcomp=0.60 / qpmin=0 / qpmax=69 / qpstep=4 / cplxblur=20.0 / qblur=0.5 / vbv_maxrate=62500 / vbv_bufsize=78125 / nal_hrd=none / filler=0 / ip_ratio=1.40 / aq=1:1.00Default : YesForced : No
AudioID : 2Format : AC-3Format/Info : Audio Coding 3Mode extension : CM (complete main)Format settings, Endianness : BigCodec ID : A_AC3Duration : 49mn 58sBit rate mode : ConstantBit rate : 384 KbpsChannel(s) : 6 channelsChannel positions : Front: L C R, Side: L R, LFESampling rate : 48.0 KHzBit depth : 16 bitsCompression mode : LossyStream size : 137 MiB (9%)Language : RussianDefault : YesForced : No

x264 log

raw [info]: 1280x720p 1:1 @ 25/1 fps (cfr)x264 [info]: using SAR=1/1x264 [info]: using cpu capabilities: MMX2 SSE2Fast SSSE3 SSE4.2 AVXx264 [info]: profile High, level 4.1x264 [info]: frame I:491 Avg QP:13.53 size:101087x264 [info]: frame P:18871 Avg QP:16.58 size: 39509x264 [info]: frame B:55605 Avg QP:19.51 size: 12663x264 [info]: consecutive B-frames: 1.9% 3.3% 5.4% 65.0% 8.4% 12.5% 2.1% 1.3% 0.2%x264 [info]: mb I I16..4: 4.2% 80.0% 15.7%x264 [info]: mb P I16..4: 1.7% 13.6% 1.2% P16..4: 40.3% 24.9% 12.7% 0.6% 0.1% skip: 4.9%x264 [info]: mb B I16..4: 0.2% 1.4% 0.1% B16..8: 34.5% 13.1% 2.8% direct: 9.3% skip:38.6% L0:40.9% L1:44.4% BI:14.7%x264 [info]: 8x8 transform intra:81.8% inter:62.6%x264 [info]: direct mvs spatial:98.8% temporal:1.2%x264 [info]: coded y,uvDC,uvAC intra: 80.8% 43.2% 26.3% inter: 29.0% 18.1% 1.5%x264 [info]: i16 v,h,dc,p: 29% 14% 6% 51%x264 [info]: i8 v,h,dc,ddl,ddr,vr,hd,vl,hu: 16% 11% 7% 7% 11% 14% 11% 12% 11%x264 [info]: i4 v,h,dc,ddl,ddr,vr,hd,vl,hu: 15% 10% 5% 8% 14% 15% 12% 11% 10%x264 [info]: i8c dc,h,v,p: 67% 11% 12% 9%x264 [info]: Weighted P-Frames: Y:8.3% UV:1.2%x264 [info]: ref P L0: 48.9% 10.8% 18.2% 6.7% 5.4% 3.9% 3.5% 2.3% 0.4% 0.0%x264 [info]: ref B L0: 80.8% 10.2% 4.0% 2.0% 1.5% 1.0% 0.5%x264 [info]: ref B L1: 95.8% 4.2%x264 [info]: kb/s:3999.98encoded 74967 frames, 13.62 fps, 3999.98 kb/s

Скриншоты

-
[Профиль] [ЛС]
Кто просматривает тему:

Показать сообщения:    

Текущее время: Сегодня 20:45

Часовой пояс: GMT



Вы не можете начинать темы
Вы не можете отвечать на сообщения
Вы не можете редактировать свои сообщения
Вы не можете удалять свои сообщения
Вы не можете голосовать в опросах
Вы не можете прикреплять файлы к сообщениям
Вы не можете скачивать файлы