Инна Чурикова. "Не Принцесса! Королевна!!!" (Андрей Луков) [2015, Документальный, HDTV 720p]

 
Автор Сообщение

TorrentFilm ®

Пол:

Стаж: 2 года

Сообщений: 7741



Награды: Нет

Торрент-статистика

Создавать темы 01-Июл-2015 00:10

[Цитировать]

Инна Чурикова. "Не Принцесса! Королевна!!!"- Год выпуска: 2015
Страна: Россия
Студия: Первый Канал HD
Жанр: Документальный
Продолжительность: 0:49:58
Автор: Михаил Грушевский
Продюсер: Дарья Пиманова
Режиссер: Андрей Луков-Описание: Вряд ли в нашей стране найдется человек, не знающий Инны Михайловны Чуриковой. Эту замечательную актрису любит не одно поколение зрителей. "Начало", "Васса", "Военно-полевой роман", "Тот самый Мюнхгаузен". Зрители уверены: если в фильме играет Чурикова, успех гарантирован. Инна Чурикова много работает и сегодня. Она участвует в самых смелых экспериментах в кино и на телевидении. И рядом с ней всегда муж – режиссер Глеб Панфилов. В шутку Инна Михайловна и Глеб Анатольевич называют себя "сиамскими близнецами".-Автор рипа: lrn
Автор записи: riper.am
Сэмпл: sendfile-Тип релиза: HDTV 720p
Контейнер: MKV
Видео: 1280x720 (16:9), 25,000 fps, H264, ~4000 kbps avg, ~0.174 bit/pixel
Аудио: 48 kHz, AC3 Dolby Digital, 2/0 (L,R) ch, ~192.00 kbps avg-

MediaInfo

GeneralUnique ID : 172522171842208706847128002146267219964 (0x81CA8FCA66F8E6AFBF6E2F5F83DAC7FC)Complete name : E:\uTorrent.Temp\Temp\Inna.Churikova.Ne.Princessa.Korolevna.2015.HDTV.720p.x264-lrn.mkvFormat : MatroskaFormat version : Version 4 / Version 2File size : 1.46 GiBDuration : 49mn 58sOverall bit rate : 4 194 KbpsMovie name : Inna.Churikova.Ne.Princessa.Korolevna.2015.HDTV.720p.x264-lrnEncoded date : UTC 2010-02-22 21:41:31Writing application : mkvmerge v5.9.0 ('On The Loose') built on Dec 9 2012 15:37:01Writing library : Lavf55.12.0
VideoID : 1Format : AVCFormat/Info : Advanced Video CodecFormat profile : High@L4.1Format settings, CABAC : YesFormat settings, ReFrames : 8 framesCodec ID : V_MPEG4/ISO/AVCDuration : 49mn 58sBit rate : 4 000 KbpsWidth : 1 280 pixelsHeight : 720 pixelsDisplay aspect ratio : 16:9Frame rate mode : ConstantFrame rate : 25.000 fpsColor space : YUVChroma subsampling : 4:2:0Bit depth : 8 bitsScan type : ProgressiveBits/(Pixel*Frame) : 0.174Stream size : 1.37 GiB (93%)Writing library : x264 core 142 r2479 dd79a61Encoding settings : cabac=1 / ref=8 / deblock=1:-3:-3 / analyse=0x3:0x113 / me=umh / subme=9 / psy=1 / psy_rd=1.00:0.00 / mixed_ref=1 / me_range=32 / chroma_me=1 / trellis=2 / 8x8dct=1 / cqm=0 / deadzone=21,11 / fast_pskip=1 / chroma_qp_offset=-4 / threads=12 / lookahead_threads=2 / sliced_threads=0 / nr=0 / decimate=1 / interlaced=0 / bluray_compat=0 / constrained_intra=0 / bframes=8 / b_pyramid=2 / b_adapt=2 / b_bias=0 / direct=1 / weightb=1 / open_gop=0 / weightp=2 / keyint=250 / keyint_min=25 / scenecut=40 / intra_refresh=0 / rc_lookahead=50 / rc=2pass / mbtree=1 / bitrate=4000 / ratetol=1.0 / qcomp=0.60 / qpmin=0 / qpmax=69 / qpstep=4 / cplxblur=20.0 / qblur=0.5 / vbv_maxrate=62500 / vbv_bufsize=78125 / nal_hrd=none / filler=0 / ip_ratio=1.40 / aq=1:1.00Default : YesForced : NoColor range : LimitedColor primaries : BT.709Transfer characteristics : BT.709Matrix coefficients : BT.709
AudioID : 2Format : AC-3Format/Info : Audio Coding 3Mode extension : CM (complete main)Format settings, Endianness : BigCodec ID : A_AC3Duration : 49mn 58sBit rate mode : ConstantBit rate : 192 KbpsChannel(s) : 2 channelsChannel positions : Front: L RSampling rate : 48.0 KHzCompression mode : LossyDelay relative to video : -80msStream size : 68.6 MiB (5%)Language : RussianDefault : YesForced : No

x264 log

raw [info]: 1280x720p 1:1 @ 25/1 fps (cfr)x264 [info]: using SAR=1/1x264 [info]: using cpu capabilities: MMX2 SSE2Fast SSSE3 SSE4.2 AVXx264 [info]: profile High, level 4.1x264 [info]: frame I:566 Avg QP:16.43 size:101802x264 [info]: frame P:18048 Avg QP:19.30 size: 39087x264 [info]: frame B:56336 Avg QP:21.48 size: 13063x264 [info]: consecutive B-frames: 1.6% 2.2% 4.5% 62.6% 8.8% 15.7% 2.4% 1.8% 0.5%x264 [info]: mb I I16..4: 4.8% 82.4% 12.8%x264 [info]: mb P I16..4: 2.0% 13.5% 1.1% P16..4: 43.6% 24.3% 12.1% 0.0% 0.0% skip: 3.3%x264 [info]: mb B I16..4: 0.3% 1.5% 0.1% B16..8: 38.7% 10.4% 2.1% direct:12.2% skip:34.7% L0:41.5% L1:44.1% BI:14.3%x264 [info]: 8x8 transform intra:81.1% inter:72.0%x264 [info]: coded y,uvDC,uvAC intra: 79.1% 70.8% 45.0% inter: 29.5% 37.1% 4.4%x264 [info]: i16 v,h,dc,p: 43% 13% 7% 37%x264 [info]: i8 v,h,dc,ddl,ddr,vr,hd,vl,hu: 15% 9% 6% 8% 12% 15% 12% 13% 12%x264 [info]: i4 v,h,dc,ddl,ddr,vr,hd,vl,hu: 15% 8% 3% 8% 14% 16% 13% 12% 11%x264 [info]: i8c dc,h,v,p: 50% 18% 19% 12%x264 [info]: Weighted P-Frames: Y:5.7% UV:2.2%x264 [info]: ref P L0: 48.8% 12.5% 17.6% 5.9% 5.1% 3.8% 3.6% 2.3% 0.2% 0.0%x264 [info]: ref B L0: 78.9% 10.8% 4.6% 2.3% 1.7% 1.1% 0.5%x264 [info]: ref B L1: 94.8% 5.2%x264 [info]: kb/s:3999.95encoded 74951 frames, 12.27 fps, 3999.95 kb/s

Скриншоты

-
[Профиль] [ЛС]
Кто просматривает тему:

Показать сообщения:    

Текущее время: Сегодня 11:05

Часовой пояс: GMT



Вы не можете начинать темы
Вы не можете отвечать на сообщения
Вы не можете редактировать свои сообщения
Вы не можете удалять свои сообщения
Вы не можете голосовать в опросах
Вы не можете прикреплять файлы к сообщениям
Вы не можете скачивать файлы