Инкогнито / Incognito (Эрик Лавэн / Eric Lavaine) [2009, Франция, музыкальная комедия, DVDRip] MVO (Кинопоказ) + Original Fre

 
Автор Сообщение

TorrentFilm ®

Пол:

Стаж: 1 год 11 месяцев

Сообщений: 7741



Награды: Нет

Торрент-статистика

Создавать темы 09-Авг-2015 00:06

[Цитировать]

Инкогнито / Incognito
Страна: Франция
Жанр: музыкальная комедия
Год выпуска: 2009
Продолжительность: 01:29:35
Перевод: Профессиональный (многоголосый закадровый) Кинопоказ
Cубтитры: нет
Оригинальная аудиодорожка: французский
Режиссер: Эрик Лавэн / Eric Lavaine
В ролях: Бенабар / Bénabar (Lucas), Франк Дюбоск / Franck Dubosc (Francis), Жослин Киврен / Jocelyn Quivrin (Thomas), Анн Маривен / Anne Marivin (Marion), Изабель Нанти / Isabelle Nanty (Alexandra), Иоланда Моро / Yolande Moreau (Mme Champenard)
Описание: В конце 1990-х троица друзей организовала рок-группу, но не добилась успеха и вскоре распалась. Прошло 10 лет, Люка работает кондуктором на городском транспорте. Но однажды вдруг объявился его давний приятель Тома, писавший когда-то песни для группы. Желая показать, что ему в жизни улыбнулась удача, Люка с помощью неудачливого актера-мима Франсиса решают сделать вид, что Люка все-таки стал поп-звездой…
Сэмпл: http://multi-up.com/1061447
Качество видео: DVDRip
Формат видео: AVI
Видео: MPEG4, XviD, 680x352 (1.932), 25.000 fps, 1 729 Kbps (0.289 bit/pixel)
Аудио: AC-3, 48.0 KHz, 2 ch, 192 Kbps, CBR - русский
Аудио 2: AC-3, 48.0 KHz, 6 ch, 448 Kbps, CBR - французский

MediaInfo

Общее
Полное имя : K:\Инкогнито.avi
Формат : AVI
Формат/Информация : Audio Video Interleave
Размер файла : 1,49 Гбайт
Продолжительность : 1 ч. 29 м.
Общий поток : 2384 Кбит/сек
Название фильма : Инкогнито / Incognito (2009)
Программа кодирования : VirtualDubMod 1.5.10.2 (build 2540/release)
Библиотека кодирования : VirtualDubMod build 2540/release
Видео
Идентификатор : 0
Формат : MPEG-4 Visual
Профиль формата : Simple@L3
Параметр BVOP формата : Нет
Параметр QPel формата : Нет
Параметр GMC формата : Без точки перехода
Параметр матрицы формата : Default (H.263)
Идентификатор кодека : XVID
Идентификатор кодека/Подсказка : XviD
Продолжительность : 1 ч. 29 м.
Битрейт : 1729 Кбит/сек
Ширина : 680 пикселей
Высота : 352 пикселя
Соотношение сторон : 1,932
Частота кадров : 25,000 кадров/сек
Цветовое пространство : YUV
Субдискретизация насыщенности : 4:2:0
Битовая глубина : 8 бит
Тип развёртки : Прогрессивная
Метод сжатия : С потерями
Бит/(Пиксели*Кадры) : 0.289
Размер потока : 1,08 Гбайт (73%)
Библиотека кодирования : XviD 1.2.1 (UTC 2008-12-04)
Аудио #1
Идентификатор : 1
Формат : AC-3
Формат/Информация : Audio Coding 3
Расширение режима : CM (complete main)
Параметр Endianness формата : Big
Идентификатор кодека : 2000
Продолжительность : 1 ч. 29 м.
Вид битрейта : Постоянный
Битрейт : 192 Кбит/сек
Каналы : 2 канала
Расположение каналов : Front: L R
Частота : 48,0 КГц
Метод сжатия : С потерями
Размер потока : 123 Мбайт (8%)
Выравнивание : Разделение по промежуткам
Продолжительность промежутка : 40 мс. (1,00 видеокадр)
Время предзагрузки промежутка : 500 мс.
Заголовок : Профессиональный (многоголосый закадровый) Кинопоказ
Аудио #2
Идентификатор : 2
Формат : AC-3
Формат/Информация : Audio Coding 3
Расширение режима : CM (complete main)
Параметр Endianness формата : Big
Идентификатор кодека : 2000
Продолжительность : 1 ч. 29 м.
Вид битрейта : Постоянный
Битрейт : 448 Кбит/сек
Каналы : 6 каналов
Расположение каналов : Front: L C R, Side: L R, LFE
Частота : 48,0 КГц
Метод сжатия : С потерями
Размер потока : 287 Мбайт (19%)
Выравнивание : Разделение по промежуткам
Продолжительность промежутка : 40 мс. (1,00 видеокадр)
Время предзагрузки промежутка : 500 мс.
Заголовок : Французский

Скриншоты


[Профиль] [ЛС]

Создавать темы 12-Июн-2016 08:13 (спустя 10 месяцев 3 дня)

Топик был перенесен из форума Фильмы 2011 года в форум Фильмы 2009 года
Russian Mafia
 
Показать сообщения:    

Текущее время: Сегодня 20:03

Часовой пояс: GMT



Вы не можете начинать темы
Вы не можете отвечать на сообщения
Вы не можете редактировать свои сообщения
Вы не можете удалять свои сообщения
Вы не можете голосовать в опросах
Вы не можете прикреплять файлы к сообщениям
Вы не можете скачивать файлы