Инженер Прончатов (Владимир Назаров) [1972, социальная драма, DVB]

 
Автор Сообщение

reversefile ®

Пол:

Стаж: 4 года 5 месяцев

Сообщений: 842

Откуда: ReverseFile.org



Награды: Нет

Торрент-статистика

Создавать темы 11-Авг-2014 06:20

[Цитировать]

Инженер Прончатов (3 серии)
Жанр: социальная драма
Год выпуска: 1972
Продолжительность: 01:03:30 + 01:03:44 + 01:04:12
Режиссёр: Владимир Назаров
В ролях: Игорь Васильев, Юрий Каюров, Михаил Глузский, Иван Лапиков, Тамара Сёмина, Инна Макарова, Антонина Жмакова, Геннадий Юхтин, Михаил Кокшенов, Игорь Кашинцев, Анатолий Соловьёв, Александр Хвыля, Валентин Абрамов, Алексей Панькин, Иван Рыжов, Витаутас Томкус, Афанасий Тришкин, Владимир Носик, Альберт Иричев
Описание: Телесериал по мотивам произведений Виля Липатова.
Молодой инженер лесосплавной конторы Олег Прончатов отстаивает идею создания на одной из северных рек большого лесопромышленного комплекса.
Доп. информация: Запись потока *.ts со спутника EUTELSAT 36A/B, 36° в.д., ремукс в *.mpg программой VideoReDo.
Качество видео: DVB
Формат видео: MPEG-РS
Видео: MPEG Video, 720x576 (4 : 3), 25,000 кадров/сек, 2911 Кбит/сек
Аудио: MPEG Audio, 48,0 КГц, 192 Кбит/сек, 2 канала-

MediaInfo

Общее
Полное имя : D:\Torrent\ИНЖЕНЕР ПРОНЧАТОВ\ИНЖЕНЕР ПРОНЧАТОВ 1 (Дом Кино).mpg
Формат : MPEG-PS
Размер файла : 1,40 Гбайт
Продолжительность : 1 ч. 3 м.
Режим общего битрейта : Переменный
Общий поток : 3166 Кбит/сек
Видео
Идентификатор : 224 (0xE0)
Формат : MPEG Video
Версия формата : Version 2
Профиль формата : Main@Main
Параметр BVOP формата : Да
Параметр матрицы формата : Выборочная
Параметр GOP формата : M=3, N=12
Продолжительность : 1 ч. 3 м.
Вид битрейта : Переменный
Битрейт : 2911 Кбит/сек
Максимальный битрейт : 5000 Кбит/сек
Ширина : 720 пикселей
Высота : 576 пикселей
Соотношение сторон : 4:3
Частота кадров : 25,000 кадров/сек
Стандарт вещания : PAL
Цветовое пространство : YUV
Субдискретизация насыщенности : 4:2:0
Битовая глубина : 8 бит
Тип развёртки : Чересстрочная
Порядок развёртки : Верхнее поле первое
Метод сжатия : С потерями
Бит/(Пиксели*Кадры) : 0.281
Временной код первого кадра : 00:00:00:00
Оригинал временного кода : Group of pictures header
Размер потока : 1,29 Гбайт (92%)
Аудио
Идентификатор : 192 (0xC0)
Формат : MPEG Audio
Версия формата : Version 1
Профиль формата : Layer 2
Продолжительность : 1 ч. 3 м.
Вид битрейта : Постоянный
Битрейт : 192 Кбит/сек
Каналы : 2 канала
Частота : 48,0 КГц
Метод сжатия : С потерями
Задержка видео : 18 мс.
Размер потока : 87,2 Мбайт (6%)
Общее
Полное имя : D:\Torrent\ИНЖЕНЕР ПРОНЧАТОВ\ИНЖЕНЕР ПРОНЧАТОВ 2 (Дом Кино).mpg
Формат : MPEG-PS
Размер файла : 1,42 Гбайт
Продолжительность : 1 ч. 3 м.
Режим общего битрейта : Переменный
Общий поток : 3190 Кбит/сек
Видео
Идентификатор : 224 (0xE0)
Формат : MPEG Video
Версия формата : Version 2
Профиль формата : Main@Main
Параметр BVOP формата : Да
Параметр матрицы формата : Выборочная
Параметр GOP формата : M=3, N=12
Продолжительность : 1 ч. 3 м.
Вид битрейта : Переменный
Битрейт : 2935 Кбит/сек
Максимальный битрейт : 5000 Кбит/сек
Ширина : 720 пикселей
Высота : 576 пикселей
Соотношение сторон : 4:3
Частота кадров : 25,000 кадров/сек
Стандарт вещания : PAL
Цветовое пространство : YUV
Субдискретизация насыщенности : 4:2:0
Битовая глубина : 8 бит
Тип развёртки : Чересстрочная
Порядок развёртки : Верхнее поле первое
Метод сжатия : С потерями
Бит/(Пиксели*Кадры) : 0.283
Временной код первого кадра : 00:00:00:00
Оригинал временного кода : Group of pictures header
Размер потока : 1,31 Гбайт (92%)
Аудио
Идентификатор : 192 (0xC0)
Формат : MPEG Audio
Версия формата : Version 1
Профиль формата : Layer 2
Продолжительность : 1 ч. 3 м.
Вид битрейта : Постоянный
Битрейт : 192 Кбит/сек
Каналы : 2 канала
Частота : 48,0 КГц
Метод сжатия : С потерями
Задержка видео : 18 мс.
Размер потока : 87,5 Мбайт (6%)
Общее
Полное имя : D:\Torrent\ИНЖЕНЕР ПРОНЧАТОВ\ИНЖЕНЕР ПРОНЧАТОВ 3 (Дом Кино).mpg
Формат : MPEG-PS
Размер файла : 1,44 Гбайт
Продолжительность : 1 ч. 4 м.
Режим общего битрейта : Переменный
Общий поток : 3206 Кбит/сек
Видео
Идентификатор : 224 (0xE0)
Формат : MPEG Video
Версия формата : Version 2
Профиль формата : Main@Main
Параметр BVOP формата : Да
Параметр матрицы формата : Выборочная
Параметр GOP формата : M=3, N=12
Продолжительность : 1 ч. 4 м.
Вид битрейта : Переменный
Битрейт : 2950 Кбит/сек
Максимальный битрейт : 5000 Кбит/сек
Ширина : 720 пикселей
Высота : 576 пикселей
Соотношение сторон : 4:3
Частота кадров : 25,000 кадров/сек
Стандарт вещания : PAL
Цветовое пространство : YUV
Субдискретизация насыщенности : 4:2:0
Битовая глубина : 8 бит
Тип развёртки : Чересстрочная
Порядок развёртки : Верхнее поле первое
Метод сжатия : С потерями
Бит/(Пиксели*Кадры) : 0.285
Временной код первого кадра : 00:00:00:00
Оригинал временного кода : Group of pictures header
Размер потока : 1,32 Гбайт (92%)
Аудио
Идентификатор : 192 (0xC0)
Формат : MPEG Audio
Версия формата : Version 1
Профиль формата : Layer 2
Продолжительность : 1 ч. 4 м.
Вид битрейта : Постоянный
Битрейт : 192 Кбит/сек
Каналы : 2 канала
Частота : 48,0 КГц
Метод сжатия : С потерями
Задержка видео : 18 мс.
Размер потока : 88,2 Мбайт (6%)
[Профиль] [ЛС]

Создавать темы 06-Авг-2015 22:04 (спустя 11 месяцев 26 дней)

Топик был перенесен из форума Кино СССР в форум Кино СССР
sergej644
 
Показать сообщения:    

Текущее время: Сегодня 01:27

Часовой пояс: GMT



Вы не можете начинать темы
Вы не можете отвечать на сообщения
Вы не можете редактировать свои сообщения
Вы не можете удалять свои сообщения
Вы не можете голосовать в опросах
Вы не можете прикреплять файлы к сообщениям
Вы не можете скачивать файлы