Индиана Джонс: Квадрология / Indiana Jones: The Complete Adventures (1981-2008) BDRip 1080p | P, P2, D, A

 
Автор Сообщение

Russian Mafia ®

Пол:

Стаж: 1 год 8 месяцев

Сообщений: 4252



Награды: 10 (Подробнее)

Mega Seeder 1 (Количество: 1) Top Releaser 3 (Количество: 1) Top Releaser 2 (Количество: 1)
Торрент-статистика

Создавать темы 03-Окт-2015 11:20

[Цитировать]

Индиана Джонс в поисках утраченного ковчега / Indiana Jones And The Raiders Of The Lost Ark (1981) BDRip 1080p:

Информация о фильме
Название: Индиана Джонс: В поисках утраченного ковчега
Оригинальное название: Raiders Of The Lost Ark
Год выхода: 1981
Жанр: Приключения
Режиссер: Стивен Спилберг
В ролях: Харрисон Форд, Карен Аллен, Пол Фримен, Рональд Лейси, Джон Рис-Дэвис, Денхолм Эллиот, Альфред Молина, Вольф Калер, Энтони Хиггинс, Вик Тэблиан, Дон Феллоуз, Уильям Хуткинс, Билл Рэймбуд, Фред Соренсон, Патрик Даркин, Мэтью Скарфильд, Малкольм Уивер, Санни Каодинез, Энтони Чинн, Пэт Роуч, Тутте Лемков, Ишак Бакс, Киран Шах, Соуад Мессоуди, Терри Ричардс, Стив Хэнсон, Фрэнк Маршалл, Мартин Крейдит, Джордж Харрис, Эдди Тэгоу, Джон Рис, Тони Фогель, Тед Гроссман
О фильме: Известный археолог и специалист по оккультным наукам доктор Джонс получает опасное задание от правительства США. Он должен отправиться на поиски уникальной реликвии — священного Ковчега. Но Индиана и не подозревает, что аналогичный приказ уже получили тайные агенты Адольфа Гитлера…
Этим потрясающим фильмом продюсер Джордж Лукас и режиссер Стивен Спилберг положили начало саги о странствиях благородного доктора Джонса по всевозможным уголкам земного шара.

Страна: США
Продолжительность: 01:55:18
Перевод: Профессиональный (полное дублирование) украинский, Профессиональный (многоголосый закадровый) x 8, Профессиональный (двухголосый закадровый), Авторский (одноголосый закадровый) x 6
Субтитры: Русские, английские
Файл
Видео: MPEG4 Video (H264), 1920x816, 23.976fps, 12.5 Mbps
Аудио #01: Русский: Dolby AC3, 48000 Hz, 6ch, 384 kbps - Многоголосый закадровый, Киномания
Аудио #02: Русский: Dolby AC3, 48000 Hz, 2ch, 192 kbps - Многоголосый закадровый, Премьер-видео
Аудио #03: Русский: Dolby AC3, 48000 Hz, 6ch, 448 kbps - Многоголосый закадровый, НТВ+
Аудио #04: Русский: Dolby AC3, 48000 Hz, 2ch, 192 kbps - Многоголосый закадровый, R5
Аудио #05: Русский: Dolby AC3, 48000 Hz, 6ch, 384 kbps - Многоголосый закадровый, DVD
Аудио #06: Русский: Dolby AC3, 48000 Hz, 6ch, 448 kbps - Многоголосый закадровый, Карусель
Аудио #07: Русский: Dolby AC3, 48000 Hz, 6ch, 448 kbps - Многоголосый закадровый, Позитив
Аудио #08: Русский: Dolby AC3, 48000 Hz, 2ch, 192 kbps - Многоголосый закадровый, ТНТ
Аудио #09: Русский: Dolby AC3, 48000 Hz, 6ch, 448 kbps - Двухголосый закадровый, Гланц + Лютая
Аудио #10: Русский: Dolby AC3, 48000 Hz, 6ch, 448 kbps - Одноголосый закадровый, Гаврилов
Аудио #11: Русский: Dolby AC3, 48000 Hz, 6ch, 448 kbps - Одноголосый закадровый, Михалев
Аудио #12: Русский: Dolby AC3, 48000 Hz, 6ch, 448 kbps - Одноголосый закадровый, Горчаков
Аудио #13: Русский: Dolby AC3, 48000 Hz, 2ch, 192 kbps - Одноголосый закадровый, Живов
Аудио #14: Русский: Dolby AC3, 48000 Hz, 2ch, 192 kbps - Одноголосый закадровый, Володарский
Аудио #15: Русский: Dolby AC3, 48000 Hz, 2ch, 192 kbps - Одноголосый закадровый, Визгунов
Аудио #16: Украинский: Dolby AC3, 48000 Hz, 2ch, 192 kbps - Дубляж, ICTV
Аудио #17: Английский: Dolby AC3, 48000 Hz, 6ch, 448 kbps
Формат субтитров: Softsub (SRT)
Сэмпл
MediaInfo: General
Unique ID : 221966666465619168857956076111035242583 (0xA6FD3996FDC8735493BD9099FA421857)
Complete name : F:Torrent 2Indiana.Jones.Complete.renta231981 В поисках утраченного ковчега.mkv
Format : Matroska
Format version : Version 4 / Version 2
File size : 14.6 GiB
Duration : 1h 55mn
Overall bit rate : 18.1 Mbps
Movie name : 1981 В поисках утраченного ковчега / renta23
Encoded date : UTC 2015-09-23 14:18:01
Writing application : mkvmerge v8.1.0 ('Psychedelic Postcard') 32bit
Writing library : libebml v1.3.1 + libmatroska v1.4.2
DURATION : 01:49:40.240000000
NUMBER_OF_FRAMES : 1225
NUMBER_OF_BYTES : 31899
_STATISTICS_WRITING_APP : mkvmerge v8.1.0 ('Psychedelic Postcard') 32bit
_STATISTICS_WRITING_DATE_UTC : 2015-09-23 14:18:01
_STATISTICS_TAGS : BPS DURATION NUMBER_OF_FRAMES NUMBER_OF_BYTES
Video
ID : 1
Format : AVC
Format/Info : Advanced Video Codec
Format profile : High@L4.1
Format settings, CABAC : Yes
Format settings, ReFrames : 3 frames
Codec ID : V_MPEG4/ISO/AVC
Duration : 1h 55mn
Bit rate : 12.5 Mbps
Width : 1 920 pixels
Height : 816 pixels
Display aspect ratio : 2.35:1
Frame rate mode : Constant
Frame rate : 23.976 fps
Color space : YUV
Chroma subsampling : 4:2:0
Bit depth : 8 bits
Scan type : Progressive
Bits/(Pixel*Frame) : 0.333
Stream size : 9.74 GiB (67%)
Title : 1981 В поисках утраченного ковчега
Writing library : x264 core 146 r2538 121396c
Encoding settings : cabac=1 / ref=4 / deblock=1:-1:-1 / analyse=0x3:0x113 / me=umh / subme=11 / psy=1 / psy_rd=1.15:0.25 / mixed_ref=1 / me_range=32 / chroma_me=1 / trellis=2 / 8x8dct=1 / cqm=0 / deadzone=21,11 / fast_pskip=0 / chroma_qp_offset=-4 / threads=12 / lookahead_threads=3 / sliced_threads=0 / nr=0 / decimate=0 / interlaced=0 / bluray_compat=0 / constrained_intra=0 / bframes=12 / b_pyramid=1 / b_adapt=2 / b_bias=0 / direct=3 / weightb=1 / open_gop=0 / weightp=2 / keyint=250 / keyint_min=23 / scenecut=40 / intra_refresh=0 / rc_lookahead=50 / rc=2pass / mbtree=1 / bitrate=12500 / ratetol=1.0 / qcomp=0.60 / qpmin=0 / qpmax=69 / qpstep=4 / cplxblur=20.0 / qblur=0.5 / vbv_maxrate=14000 / vbv_bufsize=14000 / nal_hrd=none / filler=0 / ip_ratio=1.40 / aq=1:1.00
Language : English
Default : Yes
Forced : No
Audio #1
ID : 2
Format : AC-3
Format/Info : Audio Coding 3
Mode extension : CM (complete main)
Format settings, Endianness : Big
Codec ID : A_AC3
Duration : 1h 55mn
Bit rate mode : Constant
Bit rate : 384 Kbps
Channel(s) : 6 channels
Channel positions : Front: L C R, Side: L R, LFE
Sampling rate : 48.0 KHz
Compression mode : Lossy
Stream size : 317 MiB (2%)
Title : Многоголосый закадровый, Киномания
Language : Russian
Default : Yes
Forced : No
Audio #2
ID : 3
Format : AC-3
Format/Info : Audio Coding 3
Format profile : Dolby Digital
Mode extension : CM (complete main)
Format settings, Endianness : Big
Codec ID : A_AC3
Duration : 1h 55mn
Bit rate mode : Constant
Bit rate : 192 Kbps
Channel(s) : 2 channels
Channel positions : Front: L R
Sampling rate : 48.0 KHz
Compression mode : Lossy
Stream size : 158 MiB (1%)
Title : Многоголосый закадровый, Премьер-видео
Language : Russian
Default : No
Forced : No
Audio #3
ID : 4
Format : AC-3
Format/Info : Audio Coding 3
Mode extension : CM (complete main)
Format settings, Endianness : Big
Codec ID : A_AC3
Duration : 1h 55mn
Bit rate mode : Constant
Bit rate : 448 Kbps
Channel(s) : 6 channels
Channel positions : Front: L C R, Side: L R, LFE
Sampling rate : 48.0 KHz
Compression mode : Lossy
Stream size : 370 MiB (2%)
Title : Многоголосый закадровый, НТВ+
Language : Russian
Default : No
Forced : No
Audio #4
ID : 5
Format : AC-3
Format/Info : Audio Coding 3
Format profile : Dolby Digital
Mode extension : CM (complete main)
Format settings, Endianness : Big
Codec ID : A_AC3
Duration : 1h 55mn
Bit rate mode : Constant
Bit rate : 192 Kbps
Channel(s) : 2 channels
Channel positions : Front: L R
Sampling rate : 48.0 KHz
Compression mode : Lossy
Stream size : 158 MiB (1%)
Title : Многоголосый закадровый, R5
Language : Russian
Default : No
Forced : No
Audio #5
ID : 6
Format : AC-3
Format/Info : Audio Coding 3
Mode extension : CM (complete main)
Format settings, Endianness : Big
Codec ID : A_AC3
Duration : 1h 55mn
Bit rate mode : Constant
Bit rate : 384 Kbps
Channel(s) : 6 channels
Channel positions : Front: L C R, Side: L R, LFE
Sampling rate : 48.0 KHz
Compression mode : Lossy
Stream size : 317 MiB (2%)
Title : Многоголосый закадровый, DVD
Language : Russian
Default : No
Forced : No
Audio #6
ID : 7
Format : AC-3
Format/Info : Audio Coding 3
Mode extension : CM (complete main)
Format settings, Endianness : Big
Codec ID : A_AC3
Duration : 1h 55mn
Bit rate mode : Constant
Bit rate : 448 Kbps
Channel(s) : 6 channels
Channel positions : Front: L C R, Side: L R, LFE
Sampling rate : 48.0 KHz
Compression mode : Lossy
Stream size : 370 MiB (2%)
Title : Многоголосый закадровый, Карусель
Language : Russian
Default : No
Forced : No
Audio #7
ID : 8
Format : AC-3
Format/Info : Audio Coding 3
Mode extension : CM (complete main)
Format settings, Endianness : Big
Codec ID : A_AC3
Duration : 1h 55mn
Bit rate mode : Constant
Bit rate : 448 Kbps
Channel(s) : 6 channels
Channel positions : Front: L C R, Side: L R, LFE
Sampling rate : 48.0 KHz
Compression mode : Lossy
Stream size : 370 MiB (2%)
Title : Многоголосый закадровый, Позитив
Language : Russian
Default : No
Forced : No
Audio #8
ID : 9
Format : AC-3
Format/Info : Audio Coding 3
Mode extension : CM (complete main)
Format settings, Endianness : Big
Codec ID : A_AC3
Duration : 1h 55mn
Bit rate mode : Constant
Bit rate : 192 Kbps
Channel(s) : 2 channels
Channel positions : Front: L R
Sampling rate : 48.0 KHz
Compression mode : Lossy
Stream size : 158 MiB (1%)
Title : Многоголосый закадровый, ТНТ
Language : Russian
Default : No
Forced : No
Audio #9
ID : 10
Format : AC-3
Format/Info : Audio Coding 3
Mode extension : CM (complete main)
Format settings, Endianness : Big
Codec ID : A_AC3
Duration : 1h 55mn
Bit rate mode : Constant
Bit rate : 448 Kbps
Channel(s) : 6 channels
Channel positions : Front: L C R, Side: L R, LFE
Sampling rate : 48.0 KHz
Compression mode : Lossy
Stream size : 370 MiB (2%)
Title : Двухголосый закадровый, Гланц + Лютая
Language : Russian
Default : No
Forced : No
Audio #10
ID : 11
Format : AC-3
Format/Info : Audio Coding 3
Mode extension : CM (complete main)
Format settings, Endianness : Big
Codec ID : A_AC3
Duration : 1h 55mn
Bit rate mode : Constant
Bit rate : 448 Kbps
Channel(s) : 6 channels
Channel positions : Front: L C R, Side: L R, LFE
Sampling rate : 48.0 KHz
Compression mode : Lossy
Stream size : 370 MiB (2%)
Title : Одноголосый закадровый, Гаврилов
Language : Russian
Default : No
Forced : No
Audio #11
ID : 12
Format : AC-3
Format/Info : Audio Coding 3
Mode extension : CM (complete main)
Format settings, Endianness : Big
Codec ID : A_AC3
Duration : 1h 55mn
Bit rate mode : Constant
Bit rate : 448 Kbps
Channel(s) : 6 channels
Channel positions : Front: L C R, Side: L R, LFE
Sampling rate : 48.0 KHz
Compression mode : Lossy
Stream size : 370 MiB (2%)
Title : Одноголосый закадровый, Михалев
Language : Russian
Default : No
Forced : No
Audio #12
ID : 13
Format : AC-3
Format/Info : Audio Coding 3
Mode extension : CM (complete main)
Format settings, Endianness : Big
Codec ID : A_AC3
Duration : 1h 55mn
Bit rate mode : Constant
Bit rate : 448 Kbps
Channel(s) : 6 channels
Channel positions : Front: L C R, Side: L R, LFE
Sampling rate : 48.0 KHz
Compression mode : Lossy
Stream size : 370 MiB (2%)
Title : Одноголосый закадровый, Горчаков
Language : Russian
Default : No
Forced : No
Audio #13
ID : 14
Format : AC-3
Format/Info : Audio Coding 3
Mode extension : CM (complete main)
Format settings, Endianness : Big
Codec ID : A_AC3
Duration : 1h 55mn
Bit rate mode : Constant
Bit rate : 192 Kbps
Channel(s) : 2 channels
Channel positions : Front: L R
Sampling rate : 48.0 KHz
Compression mode : Lossy
Stream size : 158 MiB (1%)
Title : Одноголосый закадровый, Живов
Language : Russian
Default : No
Forced : No
Audio #14
ID : 15
Format : AC-3
Format/Info : Audio Coding 3
Mode extension : CM (complete main)
Format settings, Endianness : Big
Codec ID : A_AC3
Duration : 1h 55mn
Bit rate mode : Constant
Bit rate : 192 Kbps
Channel(s) : 2 channels
Channel positions : Front: L R
Sampling rate : 48.0 KHz
Compression mode : Lossy
Stream size : 158 MiB (1%)
Title : Одноголосый закадровый, Володарский
Language : Russian
Default : No
Forced : No
Audio #15
ID : 16
Format : AC-3
Format/Info : Audio Coding 3
Mode extension : CM (complete main)
Format settings, Endianness : Big
Codec ID : A_AC3
Duration : 1h 55mn
Bit rate mode : Constant
Bit rate : 192 Kbps
Channel(s) : 2 channels
Channel positions : Front: L R
Sampling rate : 48.0 KHz
Compression mode : Lossy
Stream size : 158 MiB (1%)
Title : Одноголосый закадровый, Визгунов
Language : Russian
Default : No
Forced : No
Audio #16
ID : 17
Format : AC-3
Format/Info : Audio Coding 3
Mode extension : CM (complete main)
Format settings, Endianness : Big
Codec ID : A_AC3
Duration : 1h 55mn
Bit rate mode : Constant
Bit rate : 192 Kbps
Channel(s) : 2 channels
Channel positions : Front: L R
Sampling rate : 48.0 KHz
Compression mode : Lossy
Stream size : 158 MiB (1%)
Title : Дубляж, ICTV
Language : Ukrainian
Default : No
Forced : No
Audio #17
ID : 18
Format : AC-3
Format/Info : Audio Coding 3
Mode extension : CM (complete main)
Format settings, Endianness : Big
Codec ID : A_AC3
Duration : 1h 55mn
Bit rate mode : Constant
Bit rate : 448 Kbps
Channel(s) : 6 channels
Channel positions : Front: L C R, Side: L R, LFE
Sampling rate : 48.0 KHz
Compression mode : Lossy
Stream size : 370 MiB (2%)
Language : English
Default : No
Forced : No
Text #1
ID : 19
Format : UTF-8
Codec ID : S_TEXT/UTF8
Codec ID/Info : UTF-8 Plain Text
Language : Russian
Default : No
Forced : No
Text #2
ID : 20
Format : UTF-8
Codec ID : S_TEXT/UTF8
Codec ID/Info : UTF-8 Plain Text
Title : Full
Language : English
Default : No
Forced : No
Text #3
ID : 21
Format : UTF-8
Codec ID : S_TEXT/UTF8
Codec ID/Info : UTF-8 Plain Text
Title : SDH
Language : English
Default : No
Forced : No
Menu
00:00:00.000 : en:South America, 1936
00:03:16.529 : en:The Man with the Hat
00:05:44.635 : en:The Golden Idol
00:09:51.131 : en:Belloq and the Hovitos
00:12:49.351 : en:Archaeology Lesson
00:15:23.631 : en:Special Assignment
00:20:27.434 : en:Cautious Guy
00:22:58.417 : en:Nepal: The Raven
00:28:51.354 : en:Fight for the Medallion
00:33:42.395 : en:To Cairo
00:36:23.389 : en:The Marketplace
00:40:04.819 : en:Basket Chase
00:42:16.158 : en:Meeting with Belloq
00:46:41.507 : en:Bad Dates
00:49:32.928 : en:Tanis Dig
00:51:00.931 : en:The Map Room
00:55:11.141 : en:Reunited with Marion
00:58:33.218 : en:Uncovering the Well of Souls
01:03:05.740 : en:Into the Well of Souls
01:08:26.143 : en:The Ark Revealed
01:10:25.345 : en:Trapped
01:15:33.153 : en:Flying Wing
01:22:24.356 : en:Desert Chase
01:25:43.763 : en:Dragged Behind
01:29:57.517 : en:The Bantu Wind
01:34:30.665 : en:Confrontation at Sea
01:38:06.171 : en:The Nazis' Secret Island
01:41:06.060 : en:Indy's Bluff
01:44:06.823 : en:The Ark Ceremony
01:47:01.415 : en:The Power of the Ark
01:49:05.997 : en:Washington D.C. and End Credits

Индиана Джонс и Храм судьбы / Indiana Jones And The Temple Of Doom (1984) BDRip 1080p:

Информация о фильме
Название: Индиана Джонс и Храм Судьбы
Оригинальное название: Indiana Jones And The Temple Of Doom
Год выхода: 1984
Жанр: боевик, приключения
Режиссер: Стивен Спилберг
В ролях: Харрисон Форд, Кейт Кэпшоу, Джонатан Ке Кван, Амриш Пури, Рошан Сет, Филип Стоун, Рой Чяо, Дэвид Ип, Рик Янг, Цзю Чуака, Рекс Нгуи, Филип Тан, Дэн Эйкройд, Майкл Яма, Д.Р. Нанаяккара, Дармадаса Куруппу, Стани Де Силва, Руби Де Мэл, Ди.М. Динуэйк, Ирангэни Серасинг, Даршана Панангала, Радж Синх, Фрэнк Олегарио, Ахмед Эль Шенави, Артур Ф. Репола, Низвар Каранж, Пэт Роуч...
О фильме: Вторая часть невероятных похождений прославленного археолога и искателя приключений Индианы Джонса. В этот раз бесстрашный доктор Джонс совершит путешествие в сердце Гималаев вместе с ресторанной певичкой Уилли Скотт и своим верным маленьким помощником Коротышкой.
Здесь, среди величественных гор, археологу и его спутникам предстоит столкнуться кровавым культом поклонения древней Богине Смерти — Кали. Станет ли Индиана следующим несчастным, погибшим на жутком алтаре человеческих жертвоприношений, или ему, как всегда, удастся вырваться из цепких лап страха и разобраться со злодеями.

Страна: США
Продолжительность: 01:58:28
Перевод: Профессиональный (полное дублирование) украинский, Профессиональный (многоголосый закадровый) x 7, Профессиональный (двухголосый закадровый), Авторский (одноголосый закадровый) x 7
Субтитры: Русские, английские
Файл
Качество: BDRip 1080p
Формат: MKV
Видео кодек: H264
Аудио кодек: AC3
Видео: MPEG4 Video (H264), 1920x816, 23.976fps, 12.5 Mbps
Аудио #01: Русский: Dolby AC3, 48000 Hz, 6ch, 448 kbps - Многоголосый закадровый, Киномания
Аудио #02: Русский: Dolby AC3, 48000 Hz, 6ch, 448 kbps - Многоголосый закадровый, Карусель
Аудио #03: Русский: Dolby AC3, 48000 Hz, 6ch, 448 kbps - Многоголосый закадровый, DVD/FVD
Аудио #04: Русский: Dolby AC3, 48000 Hz, 6ch, 448 kbps - Многоголосый закадровый, НТВ+
Аудио #05: Русский: Dolby AC3, 48000 Hz, 2ch, 192 kbps - Многоголосый закадровый, Премьер-видео
Аудио #06: Русский: Dolby AC3, 48000 Hz, 2ch, 192 kbps - Многоголосый закадровый, R5
Аудио #07: Русский: Dolby AC3, 48000 Hz, 2ch, 192 kbps - Многоголосый закадровый, ТНТ
Аудио #08: Русский: Dolby AC3, 48000 Hz, 6ch, 448 kbps - Двухголосый закадровый, Гланц
Аудио #09: Русский: Dolby AC3, 48000 Hz, 6ch, 448 kbps - Одноголосый закадровый, Гаврилов #2
Аудио #10: Русский: Dolby AC3, 48000 Hz, 2ch, 192 kbps - Одноголосый закадровый, Гаврилов #1
Аудио #11: Русский: Dolby AC3, 48000 Hz, 6ch, 448 kbps - Одноголосый закадровый, Живов
Аудио #12: Русский: Dolby AC3, 48000 Hz, 6ch, 448 kbps - Одноголосый закадровый, Жучков
Аудио #13: Русский: Dolby AC3, 48000 Hz, 6ch, 448 kbps - Одноголосый закадровый, Михалев
Аудио #14: Русский: Dolby AC3, 48000 Hz, 2ch, 192 kbps - Одноголосый закадровый, Визгунов
Аудио #15: Русский: Dolby AC3, 48000 Hz, 2ch, 192 kbps - Одноголосый закадровый, Толбин
Аудио #16: Украинский: Dolby AC3, 48000 Hz, 2ch, 192 kbps - Дубляж, ICTV
Аудио #17: Английский: Dolby AC3, 48000 Hz, 6ch, 448 kbps
Формат субтитров: Softsub (SRT)
Сэмпл
MediaInfo: General
Unique ID : 214002045400797468373586147390169627055 (0xA0FF4B7410787D1F93222A09FF4939AF)
Complete name : F:Torrent 2Indiana.Jones.Complete.renta231983 Индиана Джонс и храм Судьбы.mkv
Format : Matroska
Format version : Version 4 / Version 2
File size : 15.1 GiB
Duration : 1h 58mn
Overall bit rate : 18.3 Mbps
Movie name : 1983 Индиана Джонс и Храм Судьбы / renta23
Encoded date : UTC 2015-09-22 10:25:55
Writing application : mkvmerge v8.1.0 ('Psychedelic Postcard') 32bit
Writing library : libebml v1.3.1 + libmatroska v1.4.2
DURATION : 01:52:24.612000000
NUMBER_OF_FRAMES : 1117
NUMBER_OF_BYTES : 27397
_STATISTICS_WRITING_APP : mkvmerge v8.1.0 ('Psychedelic Postcard') 32bit
_STATISTICS_WRITING_DATE_UTC : 2015-09-22 10:25:55
_STATISTICS_TAGS : BPS DURATION NUMBER_OF_FRAMES NUMBER_OF_BYTES
Video
ID : 1
Format : AVC
Format/Info : Advanced Video Codec
Format profile : High@L4.1
Format settings, CABAC : Yes
Format settings, ReFrames : 3 frames
Codec ID : V_MPEG4/ISO/AVC
Duration : 1h 58mn
Bit rate : 12.5 Mbps
Width : 1 920 pixels
Height : 816 pixels
Display aspect ratio : 2.35:1
Frame rate mode : Constant
Frame rate : 23.976 fps
Color space : YUV
Chroma subsampling : 4:2:0
Bit depth : 8 bits
Scan type : Progressive
Bits/(Pixel*Frame) : 0.333
Stream size : 10.00 GiB (66%)
Title : 1983 Индиана Джонс и Храм Судьбы
Writing library : x264 core 146 r2538 121396c
Encoding settings : cabac=1 / ref=4 / deblock=1:-1:-1 / analyse=0x3:0x113 / me=umh / subme=11 / psy=1 / psy_rd=1.15:0.25 / mixed_ref=1 / me_range=32 / chroma_me=1 / trellis=2 / 8x8dct=1 / cqm=0 / deadzone=21,11 / fast_pskip=0 / chroma_qp_offset=-4 / threads=12 / lookahead_threads=3 / sliced_threads=0 / nr=0 / decimate=0 / interlaced=0 / bluray_compat=0 / constrained_intra=0 / bframes=12 / b_pyramid=1 / b_adapt=2 / b_bias=0 / direct=3 / weightb=1 / open_gop=0 / weightp=2 / keyint=250 / keyint_min=23 / scenecut=40 / intra_refresh=0 / rc_lookahead=50 / rc=2pass / mbtree=1 / bitrate=12500 / ratetol=1.0 / qcomp=0.60 / qpmin=0 / qpmax=69 / qpstep=4 / cplxblur=20.0 / qblur=0.5 / vbv_maxrate=14000 / vbv_bufsize=14000 / nal_hrd=none / filler=0 / ip_ratio=1.40 / aq=1:1.00
Language : English
Default : Yes
Forced : No
Audio #1
ID : 2
Format : AC-3
Format/Info : Audio Coding 3
Mode extension : CM (complete main)
Format settings, Endianness : Big
Codec ID : A_AC3
Duration : 1h 58mn
Bit rate mode : Constant
Bit rate : 448 Kbps
Channel(s) : 6 channels
Channel positions : Front: L C R, Side: L R, LFE
Sampling rate : 48.0 KHz
Compression mode : Lossy
Stream size : 380 MiB (2%)
Title : Многоголосый закадровый, Киномания
Language : Russian
Default : Yes
Forced : No
Audio #2
ID : 3
Format : AC-3
Format/Info : Audio Coding 3
Mode extension : CM (complete main)
Format settings, Endianness : Big
Codec ID : A_AC3
Duration : 1h 58mn
Bit rate mode : Constant
Bit rate : 448 Kbps
Channel(s) : 6 channels
Channel positions : Front: L C R, Side: L R, LFE
Sampling rate : 48.0 KHz
Compression mode : Lossy
Stream size : 380 MiB (2%)
Title : Многоголосый закадровый, Карусель
Language : Russian
Default : No
Forced : No
Audio #3
ID : 4
Format : AC-3
Format/Info : Audio Coding 3
Mode extension : CM (complete main)
Format settings, Endianness : Big
Codec ID : A_AC3
Duration : 1h 58mn
Bit rate mode : Constant
Bit rate : 448 Kbps
Channel(s) : 6 channels
Channel positions : Front: L C R, Side: L R, LFE
Sampling rate : 48.0 KHz
Compression mode : Lossy
Stream size : 380 MiB (2%)
Title : Многоголосый закадровый, DVD/FVD
Language : Russian
Default : No
Forced : No
Audio #4
ID : 5
Format : AC-3
Format/Info : Audio Coding 3
Mode extension : CM (complete main)
Format settings, Endianness : Big
Codec ID : A_AC3
Duration : 1h 58mn
Bit rate mode : Constant
Bit rate : 448 Kbps
Channel(s) : 6 channels
Channel positions : Front: L C R, Side: L R, LFE
Sampling rate : 48.0 KHz
Compression mode : Lossy
Stream size : 380 MiB (2%)
Title : Многоголосый закадровый, НТВ+
Language : Russian
Default : No
Forced : No
Audio #5
ID : 6
Format : AC-3
Format/Info : Audio Coding 3
Mode extension : CM (complete main)
Format settings, Endianness : Big
Codec ID : A_AC3
Duration : 1h 58mn
Bit rate mode : Constant
Bit rate : 192 Kbps
Channel(s) : 2 channels
Channel positions : Front: L R
Sampling rate : 48.0 KHz
Compression mode : Lossy
Stream size : 163 MiB (1%)
Title : Многоголосый закадровый, Премьер-видео
Language : Russian
Default : No
Forced : No
Audio #6
ID : 7
Format : AC-3
Format/Info : Audio Coding 3
Mode extension : CM (complete main)
Format settings, Endianness : Big
Codec ID : A_AC3
Duration : 1h 58mn
Bit rate mode : Constant
Bit rate : 192 Kbps
Channel(s) : 2 channels
Channel positions : Front: L R
Sampling rate : 48.0 KHz
Compression mode : Lossy
Stream size : 163 MiB (1%)
Title : Многоголосый закадровый, R5
Language : Russian
Default : No
Forced : No
Audio #7
ID : 8
Format : AC-3
Format/Info : Audio Coding 3
Mode extension : CM (complete main)
Format settings, Endianness : Big
Codec ID : A_AC3
Duration : 1h 58mn
Bit rate mode : Constant
Bit rate : 192 Kbps
Channel(s) : 2 channels
Channel positions : Front: L R
Sampling rate : 48.0 KHz
Compression mode : Lossy
Stream size : 163 MiB (1%)
Title : Многоголосый закадровый, ТНТ
Language : Russian
Default : No
Forced : No
Audio #8
ID : 9
Format : AC-3
Format/Info : Audio Coding 3
Mode extension : CM (complete main)
Format settings, Endianness : Big
Codec ID : A_AC3
Duration : 1h 58mn
Bit rate mode : Constant
Bit rate : 448 Kbps
Channel(s) : 6 channels
Channel positions : Front: L C R, Side: L R, LFE
Sampling rate : 48.0 KHz
Compression mode : Lossy
Stream size : 380 MiB (2%)
Title : Двухголосый закадровый, Гланц
Language : Russian
Default : No
Forced : No
Audio #9
ID : 10
Format : AC-3
Format/Info : Audio Coding 3
Mode extension : CM (complete main)
Format settings, Endianness : Big
Codec ID : A_AC3
Duration : 1h 58mn
Bit rate mode : Constant
Bit rate : 448 Kbps
Channel(s) : 6 channels
Channel positions : Front: L C R, Side: L R, LFE
Sampling rate : 48.0 KHz
Compression mode : Lossy
Stream size : 380 MiB (2%)
Title : Одноголосый закадровый, Гаврилов #2
Language : Russian
Default : No
Forced : No
Audio #10
ID : 11
Format : AC-3
Format/Info : Audio Coding 3
Mode extension : CM (complete main)
Format settings, Endianness : Big
Codec ID : A_AC3
Duration : 1h 58mn
Bit rate mode : Constant
Bit rate : 192 Kbps
Channel(s) : 2 channels
Channel positions : Front: L R
Sampling rate : 48.0 KHz
Compression mode : Lossy
Stream size : 163 MiB (1%)
Title : Одноголосый закадровый, Гаврилов #1
Language : Russian
Default : No
Forced : No
Audio #11
ID : 12
Format : AC-3
Format/Info : Audio Coding 3
Mode extension : CM (complete main)
Format settings, Endianness : Big
Codec ID : A_AC3
Duration : 1h 58mn
Bit rate mode : Constant
Bit rate : 448 Kbps
Channel(s) : 6 channels
Channel positions : Front: L C R, Side: L R, LFE
Sampling rate : 48.0 KHz
Compression mode : Lossy
Stream size : 380 MiB (2%)
Title : Одноголосый закадровый, Живов
Language : Russian
Default : No
Forced : No
Audio #12
ID : 13
Format : AC-3
Format/Info : Audio Coding 3
Mode extension : CM (complete main)
Format settings, Endianness : Big
Codec ID : A_AC3
Duration : 1h 58mn
Bit rate mode : Constant
Bit rate : 448 Kbps
Channel(s) : 6 channels
Channel positions : Front: L C R, Side: L R, LFE
Sampling rate : 48.0 KHz
Compression mode : Lossy
Stream size : 380 MiB (2%)
Title : Одноголосый закадровый, Жучков
Language : Russian
Default : No
Forced : No
Audio #13
ID : 14
Format : AC-3
Format/Info : Audio Coding 3
Mode extension : CM (complete main)
Format settings, Endianness : Big
Codec ID : A_AC3
Duration : 1h 58mn
Bit rate mode : Constant
Bit rate : 448 Kbps
Channel(s) : 6 channels
Channel positions : Front: L C R, Side: L R, LFE
Sampling rate : 48.0 KHz
Compression mode : Lossy
Stream size : 380 MiB (2%)
Title : Одноголосый закадровый, Михалев
Language : Russian
Default : No
Forced : No
Audio #14
ID : 15
Format : AC-3
Format/Info : Audio Coding 3
Mode extension : CM (complete main)
Format settings, Endianness : Big
Codec ID : A_AC3
Duration : 1h 58mn
Bit rate mode : Constant
Bit rate : 192 Kbps
Channel(s) : 2 channels
Channel positions : Front: L R
Sampling rate : 48.0 KHz
Compression mode : Lossy
Stream size : 163 MiB (1%)
Title : Одноголосый закадровый, Визгунов
Language : Russian
Default : No
Forced : No
Audio #15
ID : 16
Format : AC-3
Format/Info : Audio Coding 3
Mode extension : CM (complete main)
Format settings, Endianness : Big
Codec ID : A_AC3
Duration : 1h 58mn
Bit rate mode : Constant
Bit rate : 192 Kbps
Channel(s) : 2 channels
Channel positions : Front: L R
Sampling rate : 48.0 KHz
Compression mode : Lossy
Stream size : 163 MiB (1%)
Title : Одноголосый закадровый, Толбин
Language : Russian
Default : No
Forced : No
Audio #16
ID : 17
Format : AC-3
Format/Info : Audio Coding 3
Mode extension : CM (complete main)
Format settings, Endianness : Big
Codec ID : A_AC3
Duration : 1h 58mn
Bit rate mode : Constant
Bit rate : 192 Kbps
Channel(s) : 2 channels
Channel positions : Front: L R
Sampling rate : 48.0 KHz
Compression mode : Lossy
Stream size : 163 MiB (1%)
Title : Дубляж, ICTV
Language : Ukrainian
Default : No
Forced : No
Audio #17
ID : 18
Format : AC-3
Format/Info : Audio Coding 3
Mode extension : CM (complete main)
Format settings, Endianness : Big
Codec ID : A_AC3
Duration : 1h 58mn
Bit rate mode : Constant
Bit rate : 448 Kbps
Channel(s) : 6 channels
Channel positions : Front: L C R, Side: L R, LFE
Sampling rate : 48.0 KHz
Compression mode : Lossy
Stream size : 380 MiB (2%)
Language : English
Default : No
Forced : No
Text #1
ID : 19
Format : UTF-8
Codec ID : S_TEXT/UTF8
Codec ID/Info : UTF-8 Plain Text
Title : Полные
Language : Russian
Default : No
Forced : No
Text #2
ID : 20
Format : UTF-8
Codec ID : S_TEXT/UTF8
Codec ID/Info : UTF-8 Plain Text
Title : Full
Language : English
Default : No
Forced : No
Text #3
ID : 21
Format : UTF-8
Codec ID : S_TEXT/UTF8
Codec ID/Info : UTF-8 Plain Text
Title : SDH
Language : English
Default : No
Forced : No
Menu
00:00:00.000 : en:1. Shanghai, 1935/"Anything Goes"
00:02:54.048 : en:2. Club Obi-Wan
00:08:07.278 : en:3. Melee
00:10:52.735 : en:4. The Getaway
00:12:51.479 : en:5. Escape By Air
00:16:00.542 : en:6. "Nobody's Flying the Plane"
00:19:50.189 : en:7. Mayapore (the Village)
00:26:28.670 : en:8. Sankara/Fortune and Glory
00:28:42.971 : en:9. The Journey
00:31:49.032 : en:10. The Jungle at Night
00:35:21.160 : en:11. Approaching Pankot Palace
00:38:57.001 : en:12. Audience with the Maharajah
00:41:20.519 : en:13. The Feast
00:46:24.323 : en:14. Nocturnal Activities
00:50:42.956 : en:15. Assassin
00:52:06.581 : en:16. Bugs
00:56:08.364 : en:17. The Spike Chamber
00:59:57.218 : en:18. The Temple of Doom
01:05:57.078 : en:19. Stealing the Stones
01:09:52.021 : en:20. Captives of the Thuggee
01:13:08.550 : en:21. The Blood of Kali
01:17:08.290 : en:22. Willie's Sacrifice
01:24:01.953 : en:23. The Rescue
01:27:33.331 : en:24. Freeing the Children
01:29:21.105 : en:25. The Rock Crusher
01:35:03.447 : en:26. The Mine Car Chase
01:39:23.874 : en:27. Deadly Flood
01:41:51.271 : en:28. The Rope Bridge
01:43:38.795 : en:29. Standoff
01:49:57.966 : en:30. Return to Mayapore
01:53:10.909 : en:31. End Credits

Индиана Джонс и последний крестовый поход / Indiana Jones And The Last Crusade (1989) BDRip 1080p:

Информация о фильме
Название: Индиана Джонс и последний крестовый поход
Оригинальное название: Indiana Jones and the Last Crusade
Год выхода: 1989
Жанр: Приключения
Режиссер: Стивен Спилберг
В ролях: Харрисон Форд, Шон Коннери, Денхолм Эллиот, Элисон Дуди, Джон Рис-Дэвис, Джулиан Гловер, Ривер Феникс, Майкл Бирн, Кеворк Маликян, Роберт Эддисон, Ричард Янг, Алексей Сейл, Алекс Хайд-Вайт, Пол Максвелл, Айла Блэр, Вернон Добчефф, Дж.Дж. Харди, Брэдли Грегг, Джефф О’Хако, Винс Дедрик Ст., Марк Майлз, Тед Гроссман, Тим Хисер, Ларри Сандерс...
О фильме: Третья часть невероятных похождений прославленного археолога и искателя приключений Индианы Джонса. На этот раз бесстрашный Индиана разыскивает самую таинственную реликвию в истории человечества — Святой Грааль. В этом археологу помогает его отец — профессор Джонс старший.
Теперь под бдительным оком своего отца и при помощи своих верных талисманов, неизменной шляпы и хлыста, Индиане предстоит совершить много благородных подвигов и потрясающих открытий. В новых странствиях храброму археологу доведется добыть чашу, которую держал в руках Иисус Христос и получить автограф… самого Адольфа Гитлера.

Страна: США
Продолжительность: 02:06:53
Перевод: Профессиональный (полное дублирование) украинский, Профессиональный (многоголосый закадровый) x 8, Профессиональный (двухголосый закадровый) x 2, Авторский (одноголосый закадровый) x 8
Субтитры: Русские, английские
Файл
Качество: BDRip 1080p
Формат: MKV
Видео кодек: H264
Аудио кодек: AC3
Видео: MPEG4 Video (H264), 1920x816, 23.976fps, 12.5 Mbps
Аудио #01: Русский: Dolby AC3, 48000 Hz, 6ch, 448 kbps - Многоголосый закадровый, Киномания
Аудио #02: Русский: Dolby AC3, 48000 Hz, 6ch, 448 kbps - Многоголосый закадровый, Карусель
Аудио #03: Русский: Dolby AC3, 48000 Hz, 6ch, 448 kbps - Многоголосый закадровый, DVD
Аудио #04: Русский: Dolby AC3, 48000 Hz, 6ch, 448 kbps - Многоголосый закадровый, НТВ+
Аудио #05: Русский: Dolby AC3, 48000 Hz, 6ch, 448 kbps - Многоголосый закадровый, Позитив
Аудио #06: Русский: Dolby AC3, 48000 Hz, 2ch, 192 kbps - Многоголосый закадровый, Премьер-видео
Аудио #07: Русский: Dolby AC3, 48000 Hz, 2ch, 192 kbps - Многоголосый закадровый, R5
Аудио #08: Русский: Dolby AC3, 48000 Hz, 2ch, 192 kbps - Многоголосый закадровый, ТНТ
Аудио #09: Русский: Dolby AC3, 48000 Hz, 6ch, 448 kbps - Двухголосый закадровый, Гланц + Лютая
Аудио #10: Русский: Dolby AC3, 48000 Hz, 6ch, 384 kbps - Двухголосый закадровый
Аудио #11: Русский: Dolby AC3, 48000 Hz, 6ch, 448 kbps - Одноголосый, Гаврилов
Аудио #12: Русский: Dolby AC3, 48000 Hz, 6ch, 448 kbps - Одноголосый, Михалев
Аудио #13: Русский: Dolby AC3, 48000 Hz, 2ch, 192 kbps - Одноголосый, Визгунов
Аудио #14: Русский: Dolby AC3, 48000 Hz, 6ch, 448 kbps - Одноголосый, Жучков
Аудио #15: Русский: Dolby AC3, 48000 Hz, 6ch, 448 kbps - Одноголосый, Живов
Аудио #16: Русский: Dolby AC3, 48000 Hz, 2ch, 192 kbps - Одноголосый, Марченко
Аудио #17: Русский: Dolby AC3, 48000 Hz, 2ch, 192 kbps - Одноголосый, неизвестный #1
Аудио #18: Русский: Dolby AC3, 48000 Hz, 2ch, 192 kbps - Одноголосый, неизвестный #2
Аудио #19: Русский: Dolby AC3, 48000 Hz, 2ch, 192 kbps - Дублированный, ICTV
Аудио #20: Русский: Dolby AC3, 48000 Hz, 6ch, 448 kbps
Формат субтитров: Softsub (SRT)
Сэмпл
MediaInfo: General
Unique ID : 181175159361047156314614200409799758340 (0x884D1103794F6491A04CFD1B302B9204)
Complete name : F:Torrent 2Indiana.Jones.Complete.renta231989 Индиана Джонс и последний крестовый поход.mkv
Format : Matroska
Format version : Version 4 / Version 2
File size : 17.1 GiB
Duration : 2h 6mn
Overall bit rate : 19.3 Mbps
Movie name : 1989 Индиана Джонс и последний крестовый похо / renta23
Encoded date : UTC 2015-09-25 10:31:13
Writing application : mkvmerge v8.1.0 ('Psychedelic Postcard') 32bit
Writing library : libebml v1.3.1 + libmatroska v1.4.2
DURATION : 02:06:51.936000000
NUMBER_OF_FRAMES : 237873
NUMBER_OF_BYTES : 182686464
_STATISTICS_WRITING_APP : mkvmerge v8.1.0 ('Psychedelic Postcard') 32bit
_STATISTICS_WRITING_DATE_UTC : 2015-09-25 10:31:13
_STATISTICS_TAGS : BPS DURATION NUMBER_OF_FRAMES NUMBER_OF_BYTES
Video
ID : 1
Format : AVC
Format/Info : Advanced Video Codec
Format profile : High@L4.1
Format settings, CABAC : Yes
Format settings, ReFrames : 3 frames
Codec ID : V_MPEG4/ISO/AVC
Duration : 2h 6mn
Bit rate : 12.5 Mbps
Width : 1 920 pixels
Height : 816 pixels
Display aspect ratio : 2.35:1
Frame rate mode : Constant
Frame rate : 23.976 fps
Color space : YUV
Chroma subsampling : 4:2:0
Bit depth : 8 bits
Scan type : Progressive
Bits/(Pixel*Frame) : 0.333
Stream size : 10.7 GiB (63%)
Title : 1989 Индиана Джонс и последний крестовый поход
Writing library : x264 core 146 r2538 121396c
Encoding settings : cabac=1 / ref=4 / deblock=1:-1:-1 / analyse=0x3:0x113 / me=umh / subme=11 / psy=1 / psy_rd=1.15:0.25 / mixed_ref=1 / me_range=32 / chroma_me=1 / trellis=2 / 8x8dct=1 / cqm=0 / deadzone=21,11 / fast_pskip=0 / chroma_qp_offset=-4 / threads=12 / lookahead_threads=3 / sliced_threads=0 / nr=0 / decimate=0 / interlaced=0 / bluray_compat=0 / constrained_intra=0 / bframes=12 / b_pyramid=1 / b_adapt=2 / b_bias=0 / direct=3 / weightb=1 / open_gop=0 / weightp=2 / keyint=250 / keyint_min=23 / scenecut=40 / intra_refresh=0 / rc_lookahead=50 / rc=2pass / mbtree=1 / bitrate=12500 / ratetol=1.0 / qcomp=0.60 / qpmin=0 / qpmax=69 / qpstep=4 / cplxblur=20.0 / qblur=0.5 / vbv_maxrate=14000 / vbv_bufsize=14000 / nal_hrd=none / filler=0 / ip_ratio=1.40 / aq=1:1.00
Language : English
Default : Yes
Forced : No
Audio #1
ID : 2
Format : AC-3
Format/Info : Audio Coding 3
Mode extension : CM (complete main)
Format settings, Endianness : Big
Codec ID : A_AC3
Duration : 2h 6mn
Bit rate mode : Constant
Bit rate : 448 Kbps
Channel(s) : 6 channels
Channel positions : Front: L C R, Side: L R, LFE
Sampling rate : 48.0 KHz
Compression mode : Lossy
Stream size : 407 MiB (2%)
Title : Многоголосый закадровый, Киномания
Language : Russian
Default : Yes
Forced : No
Audio #2
ID : 3
Format : AC-3
Format/Info : Audio Coding 3
Mode extension : CM (complete main)
Format settings, Endianness : Big
Codec ID : A_AC3
Duration : 2h 6mn
Bit rate mode : Constant
Bit rate : 448 Kbps
Channel(s) : 6 channels
Channel positions : Front: L C R, Side: L R, LFE
Sampling rate : 48.0 KHz
Compression mode : Lossy
Stream size : 407 MiB (2%)
Title : Многоголосый закадровый, Карусель
Language : Russian
Default : No
Forced : No
Audio #3
ID : 4
Format : AC-3
Format/Info : Audio Coding 3
Mode extension : CM (complete main)
Format settings, Endianness : Big
Codec ID : A_AC3
Duration : 2h 6mn
Bit rate mode : Constant
Bit rate : 448 Kbps
Channel(s) : 6 channels
Channel positions : Front: L C R, Side: L R, LFE
Sampling rate : 48.0 KHz
Compression mode : Lossy
Stream size : 407 MiB (2%)
Title : Многоголосый закадровый, DVD
Language : Russian
Default : No
Forced : No
Audio #4
ID : 5
Format : AC-3
Format/Info : Audio Coding 3
Mode extension : CM (complete main)
Format settings, Endianness : Big
Codec ID : A_AC3
Duration : 2h 6mn
Bit rate mode : Constant
Bit rate : 448 Kbps
Channel(s) : 6 channels
Channel positions : Front: L C R, Side: L R, LFE
Sampling rate : 48.0 KHz
Compression mode : Lossy
Stream size : 407 MiB (2%)
Title : Многоголосый закадровый, НТВ+
Language : Russian
Default : No
Forced : No
Audio #5
ID : 6
Format : AC-3
Format/Info : Audio Coding 3
Mode extension : CM (complete main)
Format settings, Endianness : Big
Codec ID : A_AC3
Duration : 2h 6mn
Bit rate mode : Constant
Bit rate : 448 Kbps
Channel(s) : 6 channels
Channel positions : Front: L C R, Side: L R, LFE
Sampling rate : 48.0 KHz
Compression mode : Lossy
Stream size : 407 MiB (2%)
Title : Многоголосый закадровый, Позитив
Language : Russian
Default : No
Forced : No
Audio #6
ID : 7
Format : AC-3
Format/Info : Audio Coding 3
Format profile : Dolby Digital
Mode extension : CM (complete main)
Format settings, Endianness : Big
Codec ID : A_AC3
Duration : 2h 6mn
Bit rate mode : Constant
Bit rate : 192 Kbps
Channel(s) : 2 channels
Channel positions : Front: L R
Sampling rate : 48.0 KHz
Compression mode : Lossy
Stream size : 174 MiB (1%)
Title : Многоголосый закадровый, Премьер-видео
Language : Russian
Default : No
Forced : No
Audio #7
ID : 8
Format : AC-3
Format/Info : Audio Coding 3
Format profile : Dolby Digital
Mode extension : CM (complete main)
Format settings, Endianness : Big
Codec ID : A_AC3
Duration : 2h 6mn
Bit rate mode : Constant
Bit rate : 192 Kbps
Channel(s) : 2 channels
Channel positions : Front: L R
Sampling rate : 48.0 KHz
Compression mode : Lossy
Stream size : 174 MiB (1%)
Title : Многоголосый закадровый, R5
Language : Russian
Default : No
Forced : No
Audio #8
ID : 9
Format : AC-3
Format/Info : Audio Coding 3
Mode extension : CM (complete main)
Format settings, Endianness : Big
Codec ID : A_AC3
Duration : 2h 6mn
Bit rate mode : Constant
Bit rate : 192 Kbps
Channel(s) : 2 channels
Channel positions : Front: L R
Sampling rate : 48.0 KHz
Compression mode : Lossy
Stream size : 174 MiB (1%)
Title : Многоголосый закадровый, ТНТ
Language : Russian
Default : No
Forced : No
Audio #9
ID : 10
Format : AC-3
Format/Info : Audio Coding 3
Mode extension : CM (complete main)
Format settings, Endianness : Big
Codec ID : A_AC3
Duration : 2h 6mn
Bit rate mode : Constant
Bit rate : 448 Kbps
Channel(s) : 6 channels
Channel positions : Front: L C R, Side: L R, LFE
Sampling rate : 48.0 KHz
Compression mode : Lossy
Stream size : 407 MiB (2%)
Title : Двухголосый закадровый, Гланц + Лютая
Language : Russian
Default : No
Forced : No
Audio #10
ID : 11
Format : AC-3
Format/Info : Audio Coding 3
Mode extension : CM (complete main)
Format settings, Endianness : Big
Codec ID : A_AC3
Duration : 2h 6mn
Bit rate mode : Constant
Bit rate : 384 Kbps
Channel(s) : 6 channels
Channel positions : Front: L C R, Side: L R, LFE
Sampling rate : 48.0 KHz
Compression mode : Lossy
Stream size : 349 MiB (2%)
Title : Двухголосый закадровый
Language : Russian
Default : No
Forced : No
Audio #11
ID : 12
Format : AC-3
Format/Info : Audio Coding 3
Mode extension : CM (complete main)
Format settings, Endianness : Big
Codec ID : A_AC3
Duration : 2h 6mn
Bit rate mode : Constant
Bit rate : 448 Kbps
Channel(s) : 6 channels
Channel positions : Front: L C R, Side: L R, LFE
Sampling rate : 48.0 KHz
Compression mode : Lossy
Stream size : 407 MiB (2%)
Title : Одноголосый, Гаврилов
Language : Russian
Default : No
Forced : No
Audio #12
ID : 13
Format : AC-3
Format/Info : Audio Coding 3
Mode extension : CM (complete main)
Format settings, Endianness : Big
Codec ID : A_AC3
Duration : 2h 6mn
Bit rate mode : Constant
Bit rate : 448 Kbps
Channel(s) : 6 channels
Channel positions : Front: L C R, Side: L R, LFE
Sampling rate : 48.0 KHz
Compression mode : Lossy
Stream size : 407 MiB (2%)
Title : Одноголосый, Михалев
Language : Russian
Default : No
Forced : No
Audio #13
ID : 14
Format : AC-3
Format/Info : Audio Coding 3
Mode extension : CM (complete main)
Format settings, Endianness : Big
Codec ID : A_AC3
Duration : 2h 6mn
Bit rate mode : Constant
Bit rate : 192 Kbps
Channel(s) : 2 channels
Channel positions : Front: L R
Sampling rate : 48.0 KHz
Compression mode : Lossy
Stream size : 174 MiB (1%)
Title : Одноголосый, Визгунов
Language : Russian
Default : No
Forced : No
Audio #14
ID : 15
Format : AC-3
Format/Info : Audio Coding 3
Mode extension : CM (complete main)
Format settings, Endianness : Big
Codec ID : A_AC3
Duration : 2h 6mn
Bit rate mode : Constant
Bit rate : 448 Kbps
Channel(s) : 6 channels
Channel positions : Front: L C R, Side: L R, LFE
Sampling rate : 48.0 KHz
Compression mode : Lossy
Stream size : 407 MiB (2%)
Title : Одноголосый, Жучков
Language : Russian
Default : No
Forced : No
Audio #15
ID : 16
Format : AC-3
Format/Info : Audio Coding 3
Mode extension : CM (complete main)
Format settings, Endianness : Big
Codec ID : A_AC3
Duration : 2h 6mn
Bit rate mode : Constant
Bit rate : 448 Kbps
Channel(s) : 6 channels
Channel positions : Front: L C R, Side: L R, LFE
Sampling rate : 48.0 KHz
Compression mode : Lossy
Stream size : 407 MiB (2%)
Title : Одноголосый, Живов
Language : Russian
Default : No
Forced : No
Audio #16
ID : 17
Format : AC-3
Format/Info : Audio Coding 3
Mode extension : CM (complete main)
Format settings, Endianness : Big
Codec ID : A_AC3
Duration : 2h 6mn
Bit rate mode : Constant
Bit rate : 192 Kbps
Channel(s) : 2 channels
Channel positions : Front: L R
Sampling rate : 48.0 KHz
Compression mode : Lossy
Stream size : 174 MiB (1%)
Title : Одноголосый, Марченко
Language : Russian
Default : No
Forced : No
Audio #17
ID : 18
Format : AC-3
Format/Info : Audio Coding 3
Mode extension : CM (complete main)
Format settings, Endianness : Big
Codec ID : A_AC3
Duration : 2h 6mn
Bit rate mode : Constant
Bit rate : 192 Kbps
Channel(s) : 2 channels
Channel positions : Front: L R
Sampling rate : 48.0 KHz
Compression mode : Lossy
Stream size : 174 MiB (1%)
Title : Одноголосый, неизвестный #1
Language : Russian
Default : No
Forced : No
Audio #18
ID : 19
Format : AC-3
Format/Info : Audio Coding 3
Mode extension : CM (complete main)
Format settings, Endianness : Big
Codec ID : A_AC3
Duration : 2h 6mn
Bit rate mode : Constant
Bit rate : 192 Kbps
Channel(s) : 2 channels
Channel positions : Front: L R
Sampling rate : 48.0 KHz
Compression mode : Lossy
Stream size : 174 MiB (1%)
Title : Одноголосый, неизвестный #2
Language : Russian
Default : No
Forced : No
Audio #19
ID : 20
Format : AC-3
Format/Info : Audio Coding 3
Mode extension : CM (complete main)
Format settings, Endianness : Big
Codec ID : A_AC3
Duration : 2h 6mn
Bit rate mode : Constant
Bit rate : 192 Kbps
Channel(s) : 2 channels
Channel positions : Front: L R
Sampling rate : 48.0 KHz
Compression mode : Lossy
Stream size : 174 MiB (1%)
Title : Дублированный, ICTV
Language : Ukrainian
Default : No
Forced : No
Audio #20
ID : 21
Format : AC-3
Format/Info : Audio Coding 3
Mode extension : CM (complete main)
Format settings, Endianness : Big
Codec ID : A_AC3
Duration : 2h 6mn
Bit rate mode : Constant
Bit rate : 448 Kbps
Channel(s) : 6 channels
Channel positions : Front: L C R, Side: L R, LFE
Sampling rate : 48.0 KHz
Compression mode : Lossy
Stream size : 407 MiB (2%)
Language : English
Default : No
Forced : No
Text #1
ID : 22
Format : UTF-8
Codec ID : S_TEXT/UTF8
Codec ID/Info : UTF-8 Plain Text
Language : Russian
Default : No
Forced : No
Text #2
ID : 23
Format : UTF-8
Codec ID : S_TEXT/UTF8
Codec ID/Info : UTF-8 Plain Text
Title : SDH
Language : English
Default : No
Forced : No
Text #3
ID : 24
Format : UTF-8
Codec ID : S_TEXT/UTF8
Codec ID/Info : UTF-8 Plain Text
Title : Full
Language : English
Default : No
Forced : No
Menu
00:00:00.000 : en:Utah, 1912 / the Cross of Coronado
00:04:41.906 : en:The Pursuit
00:08:11.032 : en:Belongs in a Museum
00:11:49.041 : en:Portuguese Coast, 1938
00:14:14.436 : en:Barnett College
00:17:19.413 : en:Meeting Donovan
00:22:14.583 : en:Ransacked
00:24:51.448 : en:To Venice
00:26:52.152 : en:"X" Marks the Spot
00:30:15.563 : en:Rats!
00:36:31.564 : en:Boat Chase
00:41:10.426 : en:"Ah, Venice"
00:44:41.387 : en:To Castle Brunwald
00:47:42.401 : en:Family Reunion
00:50:23.729 : en:"What Book?"
00:54:47.534 : en:Brody and Sallah
00:56:31.137 : en:Austrian & German Goodbyes
01:00:16.112 : en:"Head for the Fireplace"
01:03:08.743 : en:Motorcycle Chase
01:05:31.385 : en:Grail Obsession
01:07:47.313 : en:Into the Lion's Den
01:10:43.530 : en:The Zeppelin
01:13:36.328 : en:A Rebuke
01:16:11.358 : en:Dogfight
01:18:57.107 : en:Close Call
01:21:20.041 : en:Hatay
01:23:28.420 : en:Approaching the Canyon
01:25:16.736 : en:Ambush
01:26:58.046 : en:Belly of the Steel Beast
01:31:21.934 : en:Tank Showdown
01:36:57.061 : en:"I Thought I'd Lost You"
01:38:53.427 : en:Canyon of the Crescent Moon
01:41:32.544 : en:The Three Challenges
01:49:18.260 : en:"Choose Wisely"
01:56:05.667 : en:Crossing the Seal
02:00:05.907 : en:Sunset and End Credits
02:06:53.105 : en:Fin

Индиана Джонс и Королевство хрустального черепа / Indiana Jones and the Kingdom of the Crystal Skull (2008) BDRip 1080p:

Информация о фильме
Название: Индиана Джонс и Королевство хрустального черепа
Оригинальное название: Indiana Jones And The Kingdom Of The Crystal Skull
Год выхода: 2008
Жанр: Фантастика, боевик, приключения
Режиссер: Стивен Спилберг
В ролях: Харрисон Форд, Кейт Бланшетт, Шайа ЛаБаф, Карен Аллен, Рэй Уинстон, Джон Хёрт, Джим Бродбент, Игорь Жижикин, Дмитрий Дьяченко, Илья Волох
О фильме: 1957 год, разгар холодной войны. Советские солдаты, возглавляемые агентом Ириной Спалько, похищают Мэрион Рэйвенвуд — давнюю возлюбленную Индианы Джонса, ставя профессора перед выбором: бездействие и смерть Мэрион или помощь советской разведке в поисках легендарного Хрустального черепа в обмен на свободу женщины.

Страна: США
Продолжительность: 02:02:32
Перевод: Профессиональный (полное дублирование) x 2, Профессиональный (многоголосый закадровый) x 2, Профессиональный (двухголосый закадровый), Авторский (одноголосый закадровый) x 2
Субтитры: Русские, украинские, английские
Файл
Качество: BDRip 1080p
Формат: MKV
Видео кодек: H264
Аудио кодек: AC3
Видео: MPEG4 Video (H264), 1920x800, 23.976fps, 12.5 Mbps
Аудио #01: Русский: Dolby AC3, 48000 Hz, 6ch, 640 kbps - Дублированный, BD EUR
Аудио #02: Русский: Dolby AC3, 48000 Hz, 6ch, 448 kbps - Многоголосый, Киномания
Аудио #03: Русский: Dolby AC3, 48000 Hz, 6ch, 448 kbps - Многоголосый, Кравец
Аудио #04: Русский: Dolby AC3, 48000 Hz, 6ch, 448 kbps - Одноголосый, Гаврилов
Аудио #05: Русский: Dolby AC3, 48000 Hz, 6ch, 448 kbps - Одноголосый, Сербин
Аудио #06: Украинский: Dolby AC3, 48000 Hz, 6ch, 448 kbps - Дублированный
Аудио #07: Английский: Dolby AC3, 48000 Hz, 6ch, 640 kbps
Формат субтитров: Softsub (SRT)
Сэмпл
MediaInfo: General
Unique ID : 187648138167670952255596801008340416645 (0x8D2BB78235313AFE8610580FBD55B885)
Complete name : F:Torrent 2Indiana.Jones.Complete.renta232008 Индиана Джонс и Королевство хрустального черепа.mkv
Format : Matroska
Format version : Version 4 / Version 2
File size : 13.7 GiB
Duration : 2h 2mn
Overall bit rate : 16.0 Mbps
Movie name : 2008 Индиана Джонс и Королевство хрустального черепа / renta23
Encoded date : UTC 2015-09-25 10:54:47
Writing application : mkvmerge v8.1.0 ('Psychedelic Postcard') 32bit
Writing library : libebml v1.3.1 + libmatroska v1.4.2
DURATION : 01:55:33.467000000
NUMBER_OF_FRAMES : 1191
NUMBER_OF_BYTES : 38904
_STATISTICS_WRITING_APP : mkvmerge v8.1.0 ('Psychedelic Postcard') 32bit
_STATISTICS_WRITING_DATE_UTC : 2015-09-25 10:54:47
_STATISTICS_TAGS : BPS DURATION NUMBER_OF_FRAMES NUMBER_OF_BYTES
Video
ID : 1
Format : AVC
Format/Info : Advanced Video Codec
Format profile : High@L4.1
Format settings, CABAC : Yes
Format settings, ReFrames : 3 frames
Codec ID : V_MPEG4/ISO/AVC
Duration : 2h 2mn
Bit rate : 12.5 Mbps
Width : 1 920 pixels
Height : 800 pixels
Display aspect ratio : 2.40:1
Frame rate mode : Constant
Frame rate : 23.976 fps
Color space : YUV
Chroma subsampling : 4:2:0
Bit depth : 8 bits
Scan type : Progressive
Bits/(Pixel*Frame) : 0.339
Stream size : 10.4 GiB (76%)
Title : 2008 Индиана Джонс и Королевство хрустального черепа
Writing library : x264 core 146 r2538 121396c
Encoding settings : cabac=1 / ref=4 / deblock=1:-1:-1 / analyse=0x3:0x113 / me=umh / subme=11 / psy=1 / psy_rd=1.15:0.25 / mixed_ref=1 / me_range=32 / chroma_me=1 / trellis=2 / 8x8dct=1 / cqm=0 / deadzone=21,11 / fast_pskip=0 / chroma_qp_offset=-4 / threads=12 / lookahead_threads=3 / sliced_threads=0 / nr=0 / decimate=0 / interlaced=0 / bluray_compat=0 / constrained_intra=0 / bframes=12 / b_pyramid=1 / b_adapt=2 / b_bias=0 / direct=3 / weightb=1 / open_gop=0 / weightp=2 / keyint=250 / keyint_min=23 / scenecut=40 / intra_refresh=0 / rc_lookahead=50 / rc=2pass / mbtree=1 / bitrate=12500 / ratetol=1.0 / qcomp=0.60 / qpmin=0 / qpmax=69 / qpstep=4 / cplxblur=20.0 / qblur=0.5 / vbv_maxrate=14000 / vbv_bufsize=14000 / nal_hrd=none / filler=0 / ip_ratio=1.40 / aq=1:1.00
Language : English
Default : Yes
Forced : No
Audio #1
ID : 2
Format : AC-3
Format/Info : Audio Coding 3
Mode extension : CM (complete main)
Format settings, Endianness : Big
Codec ID : A_AC3
Duration : 2h 2mn
Bit rate mode : Constant
Bit rate : 640 Kbps
Channel(s) : 6 channels
Channel positions : Front: L C R, Side: L R, LFE
Sampling rate : 48.0 KHz
Compression mode : Lossy
Stream size : 561 MiB (4%)
Title : Дублированный, BD EUR
Language : Russian
Default : Yes
Forced : No
Audio #2
ID : 3
Format : AC-3
Format/Info : Audio Coding 3
Mode extension : CM (complete main)
Format settings, Endianness : Big
Codec ID : A_AC3
Duration : 2h 2mn
Bit rate mode : Constant
Bit rate : 448 Kbps
Channel(s) : 6 channels
Channel positions : Front: L C R, Side: L R, LFE
Sampling rate : 48.0 KHz
Compression mode : Lossy
Stream size : 393 MiB (3%)
Title : Многоголосый, Киномания
Language : Russian
Default : No
Forced : No
Audio #3
ID : 4
Format : AC-3
Format/Info : Audio Coding 3
Mode extension : CM (complete main)
Format settings, Endianness : Big
Codec ID : A_AC3
Duration : 2h 2mn
Bit rate mode : Constant
Bit rate : 448 Kbps
Channel(s) : 6 channels
Channel positions : Front: L C R, Side: L R, LFE
Sampling rate : 48.0 KHz
Compression mode : Lossy
Stream size : 393 MiB (3%)
Title : Многоголосый, Кравец
Language : Russian
Default : No
Forced : No
Audio #4
ID : 5
Format : AC-3
Format/Info : Audio Coding 3
Mode extension : CM (complete main)
Format settings, Endianness : Big
Codec ID : A_AC3
Duration : 2h 2mn
Bit rate mode : Constant
Bit rate : 448 Kbps
Channel(s) : 6 channels
Channel positions : Front: L C R, Side: L R, LFE
Sampling rate : 48.0 KHz
Compression mode : Lossy
Stream size : 393 MiB (3%)
Title : Одноголосый, Гаврилов
Language : Russian
Default : No
Forced : No
Audio #5
ID : 6
Format : AC-3
Format/Info : Audio Coding 3
Mode extension : CM (complete main)
Format settings, Endianness : Big
Codec ID : A_AC3
Duration : 2h 2mn
Bit rate mode : Constant
Bit rate : 448 Kbps
Channel(s) : 6 channels
Channel positions : Front: L C R, Side: L R, LFE
Sampling rate : 48.0 KHz
Compression mode : Lossy
Stream size : 393 MiB (3%)
Title : Одноголосый, Сербин
Language : Russian
Default : No
Forced : No
Audio #6
ID : 7
Format : AC-3
Format/Info : Audio Coding 3
Mode extension : CM (complete main)
Format settings, Endianness : Big
Codec ID : A_AC3
Duration : 2h 2mn
Bit rate mode : Constant
Bit rate : 448 Kbps
Channel(s) : 6 channels
Channel positions : Front: L C R, Side: L R, LFE
Sampling rate : 48.0 KHz
Compression mode : Lossy
Stream size : 393 MiB (3%)
Title : Дублированный
Language : Ukrainian
Default : No
Forced : No
Audio #7
ID : 8
Format : AC-3
Format/Info : Audio Coding 3
Mode extension : CM (complete main)
Format settings, Endianness : Big
Codec ID : A_AC3
Duration : 2h 2mn
Bit rate mode : Constant
Bit rate : 640 Kbps
Channel(s) : 6 channels
Channel positions : Front: L C R, Side: L R, LFE
Sampling rate : 48.0 KHz
Compression mode : Lossy
Stream size : 561 MiB (4%)
Language : English
Default : No
Forced : No
Text #1
ID : 9
Format : UTF-8
Codec ID : S_TEXT/UTF8
Codec ID/Info : UTF-8 Plain Text
Language : Russian
Default : No
Forced : No
Text #2
ID : 10
Format : UTF-8
Codec ID : S_TEXT/UTF8
Codec ID/Info : UTF-8 Plain Text
Language : Ukrainian
Default : No
Forced : No
Text #3
ID : 11
Format : UTF-8
Codec ID : S_TEXT/UTF8
Codec ID/Info : UTF-8 Plain Text
Language : English
Default : No
Forced : No
Text #4
ID : 12
Format : UTF-8
Codec ID : S_TEXT/UTF8
Codec ID/Info : UTF-8 Plain Text
Title : SDH
Language : English
Default : No
Forced : No
Menu
00:00:00.000 : en:1. Nevada, 1957
00:07:20.481 : en:2. The Warehouse
00:13:10.498 : en:3. I Like Ike
00:21:42.926 : en:4. Of Interest To The Bureau
00:27:38.365 : en:5. Mutt Williams
00:36:57.506 : en:6. Nazca, Peru
00:46:33.916 : en:7. Orellana's Resting Place
00:55:36.458 : en:8. Old Friends & Enemies
01:05:45.483 : en:9. A Truth Revealed
01:12:07.031 : en:10. Family Squabble
01:21:51.907 : en:11. Big Damn Ants
01:29:12.013 : en:12. Three Times It Drops
01:36:03.174 : en:13. City Of Gold
01:44:22.214 : en:14. A Hive Mind
01:51:08.161 : en:15. Finding The Real Treasure
01:55:53.947 : en:16. End Credits

[Профиль] [ЛС]
Показать сообщения:    

Текущее время: Сегодня 04:46

Часовой пояс: GMT



Вы не можете начинать темы
Вы не можете отвечать на сообщения
Вы не можете редактировать свои сообщения
Вы не можете удалять свои сообщения
Вы не можете голосовать в опросах
Вы не можете прикреплять файлы к сообщениям
Вы не можете скачивать файлы