Императорский дворец в Киото. Красота, неподвластная времени / Kyoto Imperial Palace. Beauty Hidden for a Thousand Years (Kenichi Kuroda, Yusuke Yagishita) [2015 г., Дкументальный, архитектура, искусство, история, HDTVRip-AVC 720p]

 
Автор Сообщение

skorpionN ®

Пол:

Стаж: 2 года 6 месяцев

Сообщений: 802



Награды: 4 (Подробнее)

Top Releaser 2 (Количество: 1) Mega Seeder 1 (Количество: 1) Mega Seeder 2 (Количество: 1)
Торрент-статистика

Создавать темы 16-Сен-2017 09:23

[Цитировать]

Императорский дворец в Киото. Красота, неподвластная времени / Kyoto Imperial Palace. Beauty Hidden for a Thousand Years
Год выпуска: 2015
Страна: Япония, NHK
Жанр: Документальный, архитектура, искусство, история
Продолжительность: 00:48:56
Перевод: Профессиональный (двухголосый), СВ Дубль по заказу ГТРК Культура
Режиссер: Kenichi Kuroda, Yusuke Yagishita
Описание: В сердце Киото есть почитаемое место, полное величия. Это императорский дворец. Его возраст измеряется тысячей лет. Дворец в Киото долго находился в центре японской истории. Здесь была сосредоточена вся власть в стране, здесь жили государи. Стены и двери украшает тысяча восемьсот картин, написанных драгоценными красками по золоту. А в самой глубине вы найдете сокровищницу. Раньше в ней хранились святыни, ровесники самого японского народа. Мало кому разрешается войти через дворцовые ворота, но с помощью нашего фильма вы попадете внутрь этого удивительного строения. Цифровые камеры высокой четкости впервые запечатлели скрытые от публики сокровища дворца и его облик в разные времена года.
Качество: HDTVRip-AVC
Формат: MKV
Видео кодек: H.264
Аудио кодек: AC3
Видео: 1280x720 29.97 fps 5000 Kbps
Аудио 1: (Rus) AC3 2ch, 48kHz, 192 kbps
Аудио 2: (En) AC3, 2 ch, 48 KHz, 192 Kbps

Скриншоты


MediaInfo:

Format : Matroska
Format version : Version 4 / Version 2
File size : 1.84 GiB
Duration : 48 min 56 s
Overall bit rate mode : Variable
Overall bit rate : 5 381 kb/s
Encoded date : UTC 2017-09-15 18:00:57
Writing application : mkvmerge v6.9.1 ('Blue Panther') 64bit built on Apr 18 2014 18:23:38
Writing library : libebml v1.3.0 + libmatroska v1.4.1
Video
ID : 1
Format : AVC
Format/Info : Advanced Video Codec
Format profile : High@L4.1
Format settings, CABAC : Yes
Format settings, ReFrames : 3 frames
Codec ID : V_MPEG4/ISO/AVC
Duration : 48 min 56 s
Bit rate mode : Variable
Bit rate : 5 000 kb/s
Maximum bit rate : 8 000 kb/s
Width : 1 280 pixels
Height : 720 pixels
Display aspect ratio : 16:9
Frame rate mode : Constant
Frame rate : 29.970 (30000/1001) FPS
Standard : NTSC
Color space : YUV
Chroma subsampling : 4:2:0
Bit depth : 8 bits
Scan type : Progressive
Bits/(Pixel*Frame) : 0.181
Stream size : 1.67 GiB (91%)
Writing library : x264 core 114
Encoding settings : cabac=1 / ref=3 / deblock=1:0:0 / analyse=0x3:0x113 / me=hex / subme=7 / psy=1 / psy_rd=1.00:0.00 / mixed_ref=1 / me_range=16 / chroma_me=1 / trellis=1 / 8x8dct=1 / cqm=2 / deadzone=21,11 / fast_pskip=1 / chroma_qp_offset=-4 / threads=6 / sliced_threads=0 / slices=1 / nr=0 / decimate=1 / interlaced=0 / constrained_intra=0 / bframes=3 / b_pyramid=0 / b_adapt=1 / b_bias=0 / direct=1 / weightb=1 / open_gop=0 / weightp=2 / keyint=250 / keyint_min=25 / scenecut=40 / intra_refresh=0 / rc_lookahead=40 / rc=2pass / mbtree=1 / bitrate=5000 / ratetol=1.0 / qcomp=0.60 / qpmin=5 / qpmax=69 / qpstep=4 / cplxblur=20.0 / qblur=0.5 / vbv_maxrate=8000 / vbv_bufsize=7995 / nal_hrd=vbr / ip_ratio=1.40 / aq=1:1.00
Default : Yes
Forced : No
Color range : Limited
Color primaries : BT.709
Transfer characteristics : BT.709
Matrix coefficients : BT.709
Audio #1
ID : 2
Format : AC-3
Format/Info : Audio Coding 3
Mode extension : CM (complete main)
Format settings, Endianness : Big
Codec ID : A_AC3
Duration : 48 min 56 s
Bit rate mode : Constant
Bit rate : 192 kb/s
Channel(s) : 2 channels
Channel positions : Front: L R
Sampling rate : 48.0 kHz
Frame rate : 31.250 FPS (1536 spf)
Compression mode : Lossy
Stream size : 67.2 MiB (4%)
Language : Russian
Default : Yes
Forced : No
Audio #2
ID : 3
Format : AC-3
Format/Info : Audio Coding 3
Mode extension : CM (complete main)
Format settings, Endianness : Big
Codec ID : A_AC3
Duration : 48 min 56 s
Bit rate mode : Constant
Bit rate : 192 kb/s
Channel(s) : 2 channels
Channel positions : Front: L R
Sampling rate : 48.0 kHz
Frame rate : 31.250 FPS (1536 spf)
Compression mode : Lossy
Stream size : 67.2 MiB (4%)
Language : English
Default : No
Forced : Yes
[Профиль] [ЛС]
Кто просматривает тему:

Форум Тема Автор Размер
Фильмы (HD Rips | 720p, 1080p) 300 спартанцев: Расцвет империи / 300: Rise of an Empire (2014) BDRip 720p | Лицензия sergej644 2.9 GB
Фильмы 2014 года 300 спартанцев: Расцвет империи / 300: Rise of an Empire (Ноам Мурро / Noam Murro) [2014, США, боевик, драма, WEB-DLRip] Dub bot 745 MB
Фильмы (HD Rips | 720p, 1080p) 300 спартанцев: Расцвет империи / 300: Rise of an Empire (Ноам Мурро / Noam Murro) [2014, США, боевик, драма, военный, BDRemux 1080p] Dub + VO (Есарев) + Sub (Rus, Ukr, Eng) + Original Eng + Ukr bot 28.25 GB
Фильмы (HD Rips | 720p, 1080p) 300 спартанцев: Расцвет империи / 300: Rise of an Empire (Ноам Мурро / Noam Murro) [2014, США, боевик, драма, военный, BDRip 1080p] Dub + VO (Есарев) + Sub (Rus, Ukr, Eng)+ Original Eng + Ukr bot 13.74 GB
Фильмы (HD Rips | 720p, 1080p) 300 спартанцев: Расцвет империи / 300: Rise of an Empire (Ноам Мурро / Noam Murro) [2014, США, боевик, драма, военный, BDRip 720p] Dub (CEE) + Ukr (CEE) + VO (Есарев) + Original Eng + Sub Rus, Ukr,... bot 7.9 GB
Фильмы (HD Rips | 720p, 1080p) 300 спартанцев: Расцвет империи / 300: Rise of an Empire (Ноам Мурро / Noam Murro) [2014, США, Боевик, Драма, Военный, Blu-ray disc] Dub (Лицензия) + Sub Rus, Eng + Original Eng + Ukr bot 38.26 GB
Фильмы 2014 года 300 Спартанцев: Расцвет Империи / 300: Rise Of An Empire (Ноам Мурро / Noam Murro) [2014, США, Боевик, Драма, Военный, HDRip] Dub + Original + Sub (Rus, Eng) bot 2.51 GB
Фильмы 2014 года 300 спартанцев: Расцвет империи / 300: Rise of an Empire (Ноам Мурро / Noam Murro) [2014, США, фэнтези, боевик, драма, военный, BDRip-AVC] DUB bot 1.46 GB
Показать сообщения:    

Текущее время: Сегодня 02:06

Часовой пояс: GMT



Вы не можете начинать темы
Вы не можете отвечать на сообщения
Вы не можете редактировать свои сообщения
Вы не можете удалять свои сообщения
Вы не можете голосовать в опросах
Вы не можете прикреплять файлы к сообщениям
Вы не можете скачивать файлы