Иллюзия обмана 2 / Now You See Me 2 (2016) UHD BDRemux 2160p | 4K | HDR | Лицензия

 
Автор Сообщение

BOSS ®

Пол:

Стаж: 3 года

Сообщений: 7633

Откуда: ODESSA



Награды: 22 (Подробнее)

Top Seeder 5 (Количество: 1) Top Seeder 4 (Количество: 1) Top Seeder 3 (Количество: 1)
Торрент-статистика

Создавать темы 11-Окт-2017 10:27

[Цитировать]

Информация о фильме
Название: Иллюзия обмана 2
Оригинальное название: Now You See Me 2
Год выхода: 2016
Жанр: Триллер, криминал
Режиссер: Джон М. Чу
В ролях: Джесси Айзенберг, Лиззи Каплан, Дэниэл Рэдклифф, Марк Руффало, Морган Фримен, Майкл Кейн, Вуди Харрельсон, Дэйв Франко, Санаа Лэтэн
О фильме:
Труппа уличных фигляров и скоморохов из уездного шапито под названием "Четыре всадника" достигла невиданных вершин мастерства в насаждении массового психоза. Демонстрируемые ими фокусы вышли на новый уровень технологического прогресса, оставляя после себя множество бесчувственных, временно не подлежащих идентификации тел, застывших в причудливых позах. Но враги не дремлют и засылают в глубокий тыл "Всадникам" злобного техноманьяка.

Страна: США
Студия: Lionsgate, Summit Entertainment
Продолжительность: 02:09:14
Перевод: Дублированный | Лицензия
Файл
Кодек: MPEG-4
Качество: BDRemux 2160p
Видео: 3840x2160, 56.5 Mbit/s, 23.976 fps
Звук:
Аудио #01: 48 kHz, DTS-HD MA, 5.1, 2001 Kbps | Лицензия |
Аудио #02: 48 kHz, AC3, 5.1, 640 Kbps | Лицензия |
Аудио #03: 48 kHz, TrueHD, 7.1, 4668 kbps | Оригинал |
Субтитры: Русские, английские

MI

General
Unique ID : 182494967530531129239276801245395949356 (0x894B40948CF5A2BFBF6E89339932172C)
Complete name : F:VideoSSDNow.You.See.Me.2.2016.BDREMUX.2160p.4K.UltraHD.HEVC.HDR.ExKinoRay.mkv
Format : Matroska
Format version : Version 4 / Version 2
File size : 57.7 GiB
Duration : 2 h 9 min
Overall bit rate mode : Variable
Overall bit rate : 63.7 Mb/s
Encoded date : UTC 2017-10-11 04:56:32
Writing application : mkvmerge v16.0.0 ('Protest') 64-bit
Writing library : libebml v1.3.5 + libmatroska v1.4.8
Video
ID : 1
Format : HEVC
Format/Info : High Efficiency Video Coding
Format profile : Main 10@L5.1@High
Codec ID : V_MPEGH/ISO/HEVC
Duration : 2 h 9 min
Bit rate : 56.5 Mb/s
Width : 3 840 pixels
Height : 2 160 pixels
Display aspect ratio : 16:9
Frame rate mode : Constant
Frame rate : 23.976 (24000/1001) FPS
Color space : YUV
Chroma subsampling : 4:2:0 (Type 2)
Bit depth : 10 bits
Bits/(Pixel*Frame) : 0.284
Stream size : 51.0 GiB (88%)
Writing library : ATEME Titan KFE 3.7.3 (4.7.3.1003)
Language : English
Default : Yes
Forced : No
Color range : Limited
Color primaries : BT.2020
Transfer characteristics : PQ
Matrix coefficients : BT.2020 non-constant
Mastering display color pri : R: x=0.680000 y=0.320000, G: x=0.265000 y=0.690000, B: x=0.150000 y=0.060000, White point: x=0.312700 y=0.329000
Mastering display luminance : min: 0.0000 cd/m2, max: 1000.0000 cd/m2
Maximum Content Light Level : 1033 cd/m2
Maximum Frame-Average Light : 356 cd/m2
Audio #1
ID : 2
Format : DTS
Format/Info : Digital Theater Systems
Format profile : MA / Core
Mode : 16
Format settings, Endianness : Big
Codec ID : A_DTS
Duration : 2 h 9 min
Bit rate mode : Variable / Constant
Bit rate : 2 001 kb/s / 1 509 kb/s
Channel(s) : 6 channels
Channel positions : Front: L C R, Side: L R, LFE
Sampling rate : 48.0 kHz
Frame rate : 93.750 FPS (512 SPF)
Bit depth : 16 bits
Compression mode : Lossless / Lossy
Stream size : 1.81 GiB (3%)
Title : [DUB-DTS-HD MA [US Transfer]
Language : Russian
Default : Yes
Forced : No
Audio #2
ID : 3
Format : AC-3
Format/Info : Audio Coding 3
Format settings, Endianness : Big
Codec ID : A_AC3
Duration : 2 h 9 min
Bit rate mode : Constant
Bit rate : 640 kb/s
Channel(s) : 6 channels
Channel positions : Front: L C R, Side: L R, LFE
Sampling rate : 48.0 kHz
Frame rate : 31.250 FPS (1536 SPF)
Bit depth : 16 bits
Compression mode : Lossy
Stream size : 594 MiB (1%)
Title : DUB-AC3 [US Transfer]
Language : Russian
Service kind : Complete Main
Default : No
Forced : No
Audio #3
ID : 4
Format : TrueHD
Format profile : TrueHD+Atmos / TrueHD
Codec ID : A_TRUEHD
Duration : 2 h 9 min
Bit rate mode : Variable
Bit rate : 4 668 kb/s
Maximum bit rate : 6 357 kb/s
Channel(s) : Object Based / 8 channels
Channel positions : Object Based / Front: L C R, Side: L R, Back: L R, LFE
Sampling rate : / 48.0 kHz
Frame rate : 1 200.000 FPS (40 SPF)
Compression mode : Lossless
Stream size : 4.21 GiB (7%)
Title : Original
Language : English
Default : No
Forced : No
Text #1
ID : 5
Format : UTF-8
Codec ID : S_TEXT/UTF8
Codec ID/Info : UTF-8 Plain Text
Duration : 2 h 0 min
Bit rate : 81 b/s
Count of elements : 1934
Stream size : 72.0 KiB (0%)
Title : Full
Language : English
Default : No
Forced : No
Text #2
ID : 6
Format : UTF-8
Codec ID : S_TEXT/UTF8
Codec ID/Info : UTF-8 Plain Text
Duration : 2 h 0 min
Bit rate : 88 b/s
Count of elements : 2115
Stream size : 78.0 KiB (0%)
Title : SDH
Language : English
Default : No
Forced : No
Text #3
ID : 7
Format : UTF-8
Codec ID : S_TEXT/UTF8
Codec ID/Info : UTF-8 Plain Text
Duration : 2 h 0 min
Bit rate : 122 b/s
Count of elements : 2242
Stream size : 108 KiB (0%)
Title : Full
Language : Russian
Default : No
Forced : No
Menu
00:00:00.000 : en:00:00:00.000
00:07:05.133 : en:00:07:05.133
00:16:03.838 : en:00:16:03.838
00:25:29.570 : en:00:25:29.570
00:33:16.828 : en:00:33:16.828
00:39:57.645 : en:00:39:57.645
00:48:07.718 : en:00:48:07.718
00:53:34.711 : en:00:53:34.711
01:03:53.246 : en:01:03:53.246
01:14:00.561 : en:01:14:00.561
01:20:23.569 : en:01:20:23.569
01:26:37.400 : en:01:26:37.400
01:32:37.051 : en:01:32:37.051
01:38:46.837 : en:01:38:46.837
01:48:13.529 : en:01:48:13.529
01:54:04.921 : en:01:54:04.921
[Профиль] [ЛС]
Показать сообщения:    

Текущее время: Сегодня 19:05

Часовой пояс: GMT



Вы не можете начинать темы
Вы не можете отвечать на сообщения
Вы не можете редактировать свои сообщения
Вы не можете удалять свои сообщения
Вы не можете голосовать в опросах
Вы не можете прикреплять файлы к сообщениям
Вы не можете скачивать файлы