Иллюзия обмана 2 / Now You See Me 2 (2016) DVD5

 
Автор Сообщение

ODESSA ®

Пол:

Стаж: 1 год 7 месяцев

Сообщений: 403

Откуда: ODESSA



Награды: Нет

Торрент-статистика

Создавать темы 16-Сен-2016 12:55

[Цитировать]

«Вы еще ничего не видели»

Год выпуска: 2016
Производство: США, Китай, Великобритания, Канада / Summit Entertainment, Lionsgate
Жанр: Боевик, триллер, комедия, криминал, детектив, приключения
Режиссер: Джон М. Чу
Продюсеры: Бобби Коэн, Алекс Куртцман, Роберто Орси
Актеры: Джесси Айзенберг, Марк Руффало, Вуди Харрельсон, Дэйв Франко, Дэниэл Рэдклифф, Лиззи Каплан, Джей Чоу, Санаа Лэтэн, Майкл Кейн, Морган Фриман
Описание:
«Четыре всадника», команда лучших иллюзионистов мира, снова в сборе! Их «магия» стала еще совершеннее, а враги — опаснее. На сей раз им предстоит спасти свою репутацию и вывести на чистую воду жестокого техномагната…
Перевод: Дублированный
Субтитры: Английские, русские-Дата мировой премьеры: 2 июня 2016
Дата российской премьеры: 9 июня 2016, «Централ Партнершип»
-Продолжительность: 02:09:06
Качество видео: DVD5
Видео: MPEG-2, 720x480@853x480 (NTSC 16:9), ~3900 Кбит/сек
Аудио 1: AC3 5.1, 448 Кбит/сек [Английский - оригинал]
Аудио 2: AC3 5.1, 448 Кбит/сек [Русский - дублированный]

DVDInfo:

Title: Now You See Me 2 (2016) DVD5 NTSC
Size: 4.37 Gb ( 4 582 584,00 KBytes ) - DVD-5
Enabled regions: 1, 2, 3, 4, 5, 6, 7, 8
VTS_01 :
Play Length: 02:09:06
Video: NTSC 16:9 (720x480) VBR, Auto Letterboxed
Audio:
English (Dolby AC3, 6 ch)
Russian (Dolby AC3, 6 ch)
Subtitles:
English
English
Russian
* Menus Information *
VIDEO_TS Menu
Video:
NTSC 4:3 (720x480) VBR
English Language Unit :
Title Menu
VTS_01 Menu
Video:
NTSC 16:9 (720x480) VBR
Auto Letterboxed
Audio:
Not specified (Dolby AC3, 2 ch)
English Language Unit :
Root Menu
Angle menu

MediaInfo:

Общее
Полное имя : G:ВидеоNow You See Me 2 (2016) DVD5 NTSCVIDEO_TSVTS_01_1.VOB
Формат : MPEG-PS
Размер файла : 1024 Мбайт
Продолжительность : 29 м.
Режим общего битрейта : Переменный
Общий поток : 4893 Кбит/сек
Видео
Идентификатор : 224 (0xE0)
Формат : MPEG Video
Версия формата : Version 2
Профиль формата : Main@Main
Параметр BVOP формата : Да
Параметр матрицы формата : Выборочная
Параметр GOP формата : Variable
Продолжительность : 29 м.
Вид битрейта : Переменный
Битрейт : 3900 Кбит/сек
Максимальный битрейт : 7756 Кбит/сек
Ширина : 720 пикселей
Высота : 480 пикселей
Соотношение сторон : 16:9
Частота кадров : 23,976 (24000/1001) кадра/сек
Цветовое пространство : YUV
Субдискретизация насыщенности : 4:2:0
Битовая глубина : 8 бит
Тип развёртки : Прогрессивная
Порядок развёртки : 2:3 Pulldown
Метод сжатия : С потерями
Бит/(Пиксели*Кадры) : 0.471
Временной код первого кадра : 00:00:00:00
Оригинал временного кода : Group of pictures header
GOP, открыто/закрыто : Открыто
GOP, открыто/закрыто на первом кадре : Закрыто
Размер потока : 816 Мбайт (80%)
Аудио #1
Идентификатор : 189 (0xBD)-128 (0x80)
Формат : AC-3
Формат/Информация : Audio Coding 3
Расширение режима : CM (complete main)
Параметр Endianness формата : Big
Режим смешивания : DVD-Video
Продолжительность : 29 м.
Вид битрейта : Постоянный
Битрейт : 448 Кбит/сек
Каналы : 6 каналов
Расположение каналов : Front: L C R, Side: L R, LFE
Частота : 48,0 КГц
Частота кадров : 31,250 кадров/сек (1536 spf)
Метод сжатия : С потерями
Размер потока : 93,7 Мбайт (9%)
Аудио #2
Идентификатор : 189 (0xBD)-129 (0x81)
Формат : AC-3
Формат/Информация : Audio Coding 3
Расширение режима : CM (complete main)
Параметр Endianness формата : Big
Режим смешивания : DVD-Video
Продолжительность : 29 м.
Вид битрейта : Постоянный
Битрейт : 448 Кбит/сек
Каналы : 6 каналов
Расположение каналов : Front: L C R, Side: L R, LFE
Частота : 48,0 КГц
Частота кадров : 31,250 кадров/сек (1536 spf)
Метод сжатия : С потерями
Размер потока : 93,7 Мбайт (9%)
Текст #1
Идентификатор : 189 (0xBD)-32 (0x20)
Формат : RLE
Формат/Информация : Run-length encoding
Режим смешивания : DVD-Video
Текст #2
Идентификатор : 189 (0xBD)-33 (0x21)
Формат : RLE
Формат/Информация : Run-length encoding
Режим смешивания : DVD-Video
Текст #3
Идентификатор : 189 (0xBD)-34 (0x22)
Формат : RLE
Формат/Информация : Run-length encoding
Режим смешивания : DVD-Video
Меню

Доп. информация:

Исходник: Иллюзия обмана 2 / Now You See Me 2 (2016) DVD9 | Custom
Удалены: доп. материалы, дорожки с описанием и с комментариями (в меню кнопки затёрты).
Команды диска переписаны заново, оставлен один VTS.
Видео сжато на 23,7%
Меню: статичное, недействующие кнопки затерты и закрыты.
Обработка и сжатие: DVD ReMake Pro + DVD Rebuilder + CCE SP2 [7 проходов] + Работа с меню (Adobe PhotoShop и MuxMan).

Скриншоты меню:

Скриншоты:
[Профиль] [ЛС]
Кто просматривает тему:

Форум Тема Автор Размер
Аниме [HD 720p, 1080p] Гримгал пепла и иллюзий / Hai to Gensou no Grimgar [01-12 из 12] (2016) HDTVRip 720p | SEKAI-PROJECT Russian Mafia 6 GB
Телепередачи Динамо. Невероятный иллюзионист / Dynamo. Magician Impossible (2013) HDTVRip (Сезон 3, выпуск 1-4 из 4) sergej644 2.14 GB
Отечественные cериалы Золотая клетка (Иллюзия любви) [01-04 из 04] (2015) WEB-DLRip BOSS 5.47 GB
Отечественные мультфильмы Иллюзион (Елена Турова) [1990, Рисованный мультфильм, WEBRip] TorrentFilm 100 MB
Фильмы 2011 года Иллюзионист / The Illusionist (2006) BDRip sergej644 2.18 GB
Фильмы 2011 года Иллюзионист / The Illusionist (Нил Бёргер / Neil Burger) [2006, США, Чехия, триллер, драма, мелодрама, детектив, BDRip-AVC] Dub + Original (Eng) + Sub (Rus, Eng) painkiller 1.46 GB
Фильмы (DVD 5/9) Иллюзия обмана / Now You See Me (Луи Летерье / Louis Leterrier) [2013, Франция, США, триллер, криминал, детектив, BD-DVD5 (Custom)] [Расширенная версия / Extended cut] DUB + Sub Eng + Sub Rus +... sergej644 4.35 GB
Фильмы (HD DVD, Blu-ray и BDRemux) Иллюзия обмана 2 / Now You See Me 2 (2016) BDRemux 1080p от ExKinoRay | US Transfer | Лицензия достали все 32.84 GB
Показать сообщения:    

Текущее время: Сегодня 12:30

Часовой пояс: GMT



Вы не можете начинать темы
Вы не можете отвечать на сообщения
Вы не можете редактировать свои сообщения
Вы не можете удалять свои сообщения
Вы не можете голосовать в опросах
Вы не можете прикреплять файлы к сообщениям
Вы не можете скачивать файлы