Иллюзия обмана 2 / Now You See Me 2 (2016) BDRip 1080p от ExKinoRay | US Transfer | Лицензия

 
Автор Сообщение

Russian Mafia ®

Пол:

Стаж: 1 год 8 месяцев

Сообщений: 4257



Награды: 10 (Подробнее)

Mega Seeder 4 (Количество: 1) Top Releaser 4 (Количество: 1) Top Releaser 3 (Количество: 1)
Торрент-статистика

Создавать темы 30-Авг-2016 11:31

[Цитировать]

Информация о фильме
Название: Иллюзия обмана 2
Оригинальное название: Now You See Me 2
Год выхода: 2016
Жанр: Триллер, криминал
Режиссер: Джон М. Чу
В ролях: Джесси Айзенберг, Лиззи Каплан, Дэниэл Рэдклифф, Марк Руффало, Морган Фримен, Майкл Кейн, Вуди Харрельсон, Дэйв Франко, Санаа Лэтэн
О фильме:
Труппа уличных фигляров и скоморохов из уездного шапито под названием "Четыре всадника" достигла невиданных вершин мастерства в насаждении массового психоза. Демонстрируемые ими фокусы вышли на новый уровень технологического прогресса, оставляя после себя множество бесчувственных, временно не подлежащих идентификации тел, застывших в причудливых позах. Но враги не дремлют и засылают в глубокий тыл "Всадникам" злобного техноманьяка.

Страна: США
Студия: Lionsgate, Summit Entertainment
Продолжительность: 02:09:13
Перевод: Дублированный | Лицензия Blu-Ray
Файл
Кодек: MPEG-4
Качество: BDRip 1080p
Видео: 1920x800, 18.4 Mbit/s, 23.976 fps
Звук:
Аудио #01: 48 kHz, DTS, 5.1, 1510 Kbps | Лицензия |
Аудио #02: 48 kHz, AC3, 5.1, 640 Kbps | Лицензия |
Аудио #03: 48 kHz, DTS, 5.1, 1510 kbps | Оригинал |
Субтитры: Английские

MI

General
Unique ID : 187409567863822773211847426480195073709 (0x8CFDC515A25721BBA1FBDC43D3D576AD)
Complete name : G:VideoNow.You.See.Me.2.2016.D.BDRip.1080p.ExKinoRay.mkv
Format : Matroska
Format version : Version 4 / Version 2
File size : 19.1 GiB
Duration : 2 h 9 min
Overall bit rate : 21.1 Mb/s
Movie name : Now.You.See.Me.2.2016.D.BDRip.1080p.ExKinoRay
Encoded date : UTC 2016-08-30 09:32:06
Writing application : mkvmerge v8.3.0 ('Over the Horizon') 64bit
Writing library : libebml v1.3.1 + libmatroska v1.4.2
Video
ID : 1
Format : AVC
Format/Info : Advanced Video Codec
Format profile : High@L4.1
Format settings, CABAC : Yes
Format settings, ReFrames : 5 frames
Codec ID : V_MPEG4/ISO/AVC
Duration : 2 h 9 min
Bit rate : 18.4 Mb/s
Width : 1 920 pixels
Height : 800 pixels
Display aspect ratio : 2.40:1
Frame rate mode : Constant
Frame rate : 23.976 (24000/1001) FPS
Color space : YUV
Chroma subsampling : 4:2:0
Bit depth : 8 bits
Scan type : Progressive
Bits/(Pixel*Frame) : 0.499
Stream size : 16.6 GiB (87%)
Writing library : x264 core 142 r2431+42 c69a006 tMod [8-bit@all X86_64]
Encoding settings : cabac=1 / ref=5 / deblock=1:-3:-3 / analyse=0x3:0x133 / me=umh / subme=11 / psy=1 / fade_compensate=0.00 / psy_rd=0.90:0.00 / mixed_ref=1 / me_range=32 / chroma_me=1 / trellis=2 / 8x8dct=1 / cqm=0 / deadzone=21,11 / fast_pskip=0 / chroma_qp_offset=-2 / threads=12 / lookahead_threads=2 / sliced_threads=0 / nr=0 / decimate=0 / interlaced=0 / bluray_compat=0 / constrained_intra=0 / fgo=0 / bframes=8 / b_pyramid=2 / b_adapt=2 / b_bias=0 / direct=3 / weightb=1 / open_gop=0 / weightp=2 / keyint=240 / keyint_min=23 / scenecut=40 / intra_refresh=0 / rc_lookahead=60 / rc=crf / mbtree=0 / crf=16.0000 / qcomp=0.60 / qpmin=0:0:0 / qpmax=69:69:69 / qpstep=4 / vbv_maxrate=40000 / vbv_bufsize=30000 / crf_max=0.0 / nal_hrd=none / filler=0 / ip_ratio=1.40 / pb_ratio=1.30 / aq=1:0.90 / aq-sensitivity=10.00 / aq-factor=1.00:1.00:1.00 / aq2=0 / aq3=0
Language : English
Default : Yes
Forced : No
Audio #1
ID : 2
Format : DTS
Format/Info : Digital Theater Systems
Mode : 16
Format settings, Endianness : Big
Codec ID : A_DTS
Duration : 2 h 9 min
Bit rate mode : Constant
Bit rate : 1 509 kb/s
Channel(s) : 6 channels
Channel positions : Front: L C R, Side: L R, LFE
Sampling rate : 48.0 kHz
Frame rate : 93.750 FPS (512 spf)
Bit depth : 16 bits
Compression mode : Lossy
Stream size : 1.37 GiB (7%)
Title : DUB-DTS [License]
Language : Russian
Default : Yes
Forced : No
Audio #2
ID : 3
Format : AC-3
Format/Info : Audio Coding 3
Mode extension : CM (complete main)
Format settings, Endianness : Big
Codec ID : A_AC3
Duration : 2 h 9 min
Bit rate mode : Constant
Bit rate : 640 kb/s
Channel(s) : 6 channels
Channel positions : Front: L C R, Side: L R, LFE
Sampling rate : 48.0 kHz
Frame rate : 31.250 FPS (1536 spf)
Compression mode : Lossy
Stream size : 594 MiB (3%)
Title : DUB-AC3 [License]
Language : Russian
Default : No
Forced : No
Audio #3
ID : 4
Format : AC-3
Format/Info : Audio Coding 3
Mode extension : CM (complete main)
Format settings, Endianness : Big
Codec ID : A_AC3
Duration : 2 h 9 min
Bit rate mode : Constant
Bit rate : 640 kb/s
Channel(s) : 6 channels
Channel positions : Front: L C R, Side: L R, LFE
Sampling rate : 48.0 kHz
Frame rate : 31.250 FPS (1536 spf)
Compression mode : Lossy
Stream size : 592 MiB (3%)
Title : Original
Language : English
Default : No
Forced : No
Text #1
ID : 5
Format : UTF-8
Codec ID : S_TEXT/UTF8
Codec ID/Info : UTF-8 Plain Text
Duration : 2 h 0 min
Bit rate : 81 b/s
Count of elements : 1934
Stream size : 72.0 KiB (0%)
Title : Full
Language : English
Default : No
Forced : No
Text #2
ID : 6
Format : UTF-8
Codec ID : S_TEXT/UTF8
Codec ID/Info : UTF-8 Plain Text
Duration : 2 h 0 min
Bit rate : 88 b/s
Count of elements : 2115
Stream size : 78.0 KiB (0%)
Title : SDH
Language : English
Default : No
Forced : No
Menu
00:00:00.000 : en:00:00:00.000
00:07:05.133 : en:00:07:05.133
00:16:03.838 : en:00:16:03.838
00:25:29.570 : en:00:25:29.570
00:33:16.828 : en:00:33:16.828
00:39:57.645 : en:00:39:57.645
00:48:07.718 : en:00:48:07.718
00:53:34.711 : en:00:53:34.711
01:03:53.246 : en:01:03:53.246
01:14:00.561 : en:01:14:00.561
01:20:23.569 : en:01:20:23.569
01:26:37.400 : en:01:26:37.400
01:32:37.051 : en:01:32:37.051
01:38:46.837 : en:01:38:46.837
01:48:13.529 : en:01:48:13.529
01:54:04.921 : en:01:54:04.921

Скриншоты

Релиз от: Автор релиза:
[Профиль] [ЛС]
Кто просматривает тему:

Форум Тема Автор Размер
Аниме [HD 720p, 1080p] Гримгал пепла и иллюзий / Hai to Gensou no Grimgar [01-12 из 12] (2016) HDTVRip 720p | SEKAI-PROJECT Russian Mafia 6 GB
Телепередачи Динамо. Невероятный иллюзионист / Dynamo. Magician Impossible (2013) HDTVRip (Сезон 3, выпуск 1-4 из 4) sergej644 2.14 GB
Отечественные cериалы Золотая клетка (Иллюзия любви) [01-04 из 04] (2015) WEB-DLRip BOSS 5.47 GB
Отечественные мультфильмы Иллюзион (Елена Турова) [1990, Рисованный мультфильм, WEBRip] TorrentFilm 100 MB
Фильмы 2011 года Иллюзионист / The Illusionist (2006) BDRip sergej644 2.18 GB
Фильмы 2011 года Иллюзионист / The Illusionist (Нил Бёргер / Neil Burger) [2006, США, Чехия, триллер, драма, мелодрама, детектив, BDRip-AVC] Dub + Original (Eng) + Sub (Rus, Eng) painkiller 1.46 GB
Фильмы (DVD 5/9) Иллюзия обмана / Now You See Me (Луи Летерье / Louis Leterrier) [2013, Франция, США, триллер, криминал, детектив, BD-DVD5 (Custom)] [Расширенная версия / Extended cut] DUB + Sub Eng + Sub Rus +... sergej644 4.35 GB
Фильмы (HD DVD, Blu-ray и BDRemux) Иллюзия обмана 2 / Now You See Me 2 (2016) BDRemux 1080p от ExKinoRay | US Transfer | Лицензия достали все 32.84 GB
Показать сообщения:    

Текущее время: Сегодня 03:21

Часовой пояс: GMT



Вы не можете начинать темы
Вы не можете отвечать на сообщения
Вы не можете редактировать свои сообщения
Вы не можете удалять свои сообщения
Вы не можете голосовать в опросах
Вы не можете прикреплять файлы к сообщениям
Вы не можете скачивать файлы