Иллюзия обмана 2 / Now You See Me 2 (2016) BDRip-AVC от ExKinoRay | US Transfer | Лицензия

 
Автор Сообщение

Russian Mafia ®

Пол:

Стаж: 1 год 8 месяцев

Сообщений: 4247



Награды: 10 (Подробнее)

Top Releaser 2 (Количество: 1) Mega Seeder 2 (Количество: 1) Top Releaser 4 (Количество: 1)
Торрент-статистика

Создавать темы 29-Авг-2016 19:17

[Цитировать]

Информация о фильме
Название: Иллюзия обмана 2
Оригинальное название: Now You See Me 2
Год выпуска: 2016
Жанр: Триллер, криминал
Выпущено: США, Lionsgate, Summit Entertainment
Режиссер: Джон М. Чу
В ролях: Джесси Айзенберг, Лиззи Каплан, Дэниэл Рэдклифф, Марк Руффало, Морган Фримен, Майкл Кейн, Вуди Харрельсон, Дэйв Франко, Санаа Лэтэн
О фильме: Труппа уличных фигляров и скоромохов из уездного шапито под названием "Четыре всадника" достигла невиданных вершин мастерства в насаждении массового психоза. Демонстрируемые ими фокусы вышли на новый уровень технологического прогресса, оставляя после себя множество бесчувственных, временно не подлежащих идентификации тел, застывших в причудливых позах. Но враги не дремлют и засылают в глубокий тыл "Всадникам" злобного техноманьяка.

Файл
Качество: ВDRip (AVC)
Видео: MPEG-4 AVC, 2434 Кбит/с, 1024x426, 23.976 кадр/с
Аудио: Русский, английский (AC3, 6 ch, 448 Кбит/с)
Размер: 3.01 ГБ
Продолжительность: 02:09:13
Перевод: Дублированный
Субтитры: Английские
Озвучивание - Дублированное (Лицензия)
Сохранены оригинальные чаптеры как на Blu-Ray.

x264

x264 [info]: frame I:1969 Avg QP:15.72 size: 82916
x264 [info]: frame P:44940 Avg QP:18.71 size: 24563
x264 [info]: frame B:138987 Avg QP:20.10 size: 7853
x264 [info]: consecutive B-frames: 3.4% 4.5% 11.3% 23.5% 19.4% 29.8% 4.9% 1.2% 1.1% 0.9%
x264 [info]: mb I I16..4: 18.7% 56.3% 25.0%
x264 [info]: mb P I16..4: 1.0% 10.6% 1.6% P16..4: 29.1% 34.9% 13.9% 2.5% 0.2% skip: 6.2%
x264 [info]: mb B I16..4: 0.1% 0.8% 0.2% B16..8: 36.5% 21.7% 4.3% direct: 5.3% skip:31.1% L0:42.6% L1:45.3% BI:12.1%
x264 [info]: 8x8 transform intra:74.1% inter:55.4%
x264 [info]: direct mvs spatial:95.7% temporal:4.3%
x264 [info]: coded y,uvDC,uvAC intra: 87.5% 89.0% 78.3% inter: 26.7% 26.2% 14.3%
x264 [info]: i16 v,h,dc,p: 36% 12% 21% 30%
x264 [info]: i8 v,h,dc,ddl,ddr,vr,hd,vl,hu: 9% 7% 13% 10% 13% 12% 12% 11% 13%
x264 [info]: i4 v,h,dc,ddl,ddr,vr,hd,vl,hu: 12% 9% 9% 9% 13% 13% 12% 11% 12%
x264 [info]: i8c dc,h,v,p: 50% 19% 16% 15%
x264 [info]: Weighted P-Frames: Y:4.1% UV:2.2%
x264 [info]: ref P L0: 47.3% 9.9% 17.8% 6.0% 5.3% 3.3% 3.3% 1.6% 1.7% 1.2% 1.3% 1.1% 0.3% 0.0%
x264 [info]: ref B L0: 70.9% 13.0% 5.8% 3.2% 2.0% 1.7% 1.2% 0.8% 0.6% 0.4% 0.2%
x264 [info]: ref B L1: 92.6% 7.4%
x264 [info]: kb/s:2433.54

Инфо-файл

Общее
Уникальный идентификатор : 203083731691486124142466156184634906373 (0x98C88106AF563617B4BBD36BCFFBD705)
Полное имя : D:ЗагрузкиNow.You.See.Me.II.US.Transfer.2016.x264.BDRip.(AVC).ExKinoRay.mkv
Формат : Matroska
Версия формата : Version 2
Размер файла : 3,01 Гбайт
Продолжительность : 2 ч. 9 м.
Общий поток : 3322 Кбит/сек
Название фильма : Иллюзия обмана II.2016.Rip by: ollan
Дата кодирования : UTC 2016-08-29 12:10:10
Программа кодирования : mkvmerge v5.6.0 ('Kenya Kane') built on May 27 2012 16:44:04
Библиотека кодирования : libebml v1.2.3 + libmatroska v1.3.0
Обложка : Yes
Attachments : Cover - Now.You.See.Me.II...png
Видео
Идентификатор : 1
Формат : AVC
Формат/Информация : Advanced Video Codec
Профиль формата : High@L4.1
Параметр CABAC формата : Да
Параметр ReFrames формата : 12 кадров
Идентификатор кодека : V_MPEG4/ISO/AVC
Продолжительность : 2 ч. 9 м.
Битрейт : 2434 Кбит/сек
Ширина : 1024 пикселя
Высота : 426 пикселей
Соотношение сторон : 2,40:1
Режим частоты кадров : Постоянный
Частота кадров : 23,976 (24000/1001) кадра/сек
Цветовое пространство : YUV
Субдискретизация насыщенности : 4:2:0
Битовая глубина : 8 бит
Тип развёртки : Прогрессивная
Бит/(Пиксели*Кадры) : 0.233
Размер потока : 2,14 Гбайт (71%)
Библиотека кодирования : x264 core 146 r2538 121396c
Настройки программы : cabac=1 / ref=12 / deblock=1:-3:-3 / analyse=0x3:0x133 / me=umh / subme=11 / psy=1 / psy_rd=1.03:0.10 / mixed_ref=1 / me_range=48 / chroma_me=1 / trellis=2 / 8x8dct=1 / cqm=0 / deadzone=21,11 / fast_pskip=0 / chroma_qp_offset=-3 / threads=12 / lookahead_threads=2 / sliced_threads=0 / nr=0 / decimate=0 / interlaced=0 / bluray_compat=0 / constrained_intra=0 / bframes=9 / b_pyramid=2 / b_adapt=2 / b_bias=0 / direct=3 / weightb=1 / open_gop=0 / weightp=2 / keyint=240 / keyint_min=23 / scenecut=40 / intra_refresh=0 / rc_lookahead=40 / rc=2pass / mbtree=0 / bitrate=2434 / ratetol=1.0 / qcomp=0.60 / qpmin=0 / qpmax=69 / qpstep=4 / cplxblur=20.0 / qblur=0.5 / vbv_maxrate=50000 / vbv_bufsize=62500 / nal_hrd=none / filler=0 / ip_ratio=1.40 / pb_ratio=1.30 / aq=1:1.00
Язык : English
Default : Да
Forced : Нет
Аудио #1
Идентификатор : 2
Формат : AC-3
Формат/Информация : Audio Coding 3
Расширение режима : CM (complete main)
Параметр Endianness формата : Big
Идентификатор кодека : A_AC3
Продолжительность : 2 ч. 9 м.
Вид битрейта : Постоянный
Битрейт : 448 Кбит/сек
Каналы : 6 каналов
Расположение каналов : Front: L C R, Side: L R, LFE
Частота : 48,0 КГц
Частота кадров : 31,250 кадров/сек (1536 spf)
Метод сжатия : С потерями
Размер потока : 415 Мбайт (13%)
Заголовок : Дублированный (Лицензия)
Язык : Russian
Default : Да
Forced : Нет
Аудио #2
Идентификатор : 3
Формат : AC-3
Формат/Информация : Audio Coding 3
Расширение режима : CM (complete main)
Параметр Endianness формата : Big
Идентификатор кодека : A_AC3
Продолжительность : 2 ч. 9 м.
Вид битрейта : Постоянный
Битрейт : 448 Кбит/сек
Каналы : 6 каналов
Расположение каналов : Front: L C R, Side: L R, LFE
Частота : 48,0 КГц
Частота кадров : 31,250 кадров/сек (1536 spf)
Метод сжатия : С потерями
Размер потока : 415 Мбайт (13%)
Язык : English
Default : Нет
Forced : Нет
Текст
Идентификатор : 4
Формат : UTF-8
Идентификатор кодека : S_TEXT/UTF8
Идентификатор кодека/Информация : UTF-8 Plain Text
Заголовок : Full
Язык : English
Default : Нет
Forced : Нет
Меню
00:00:00.000 : en:Chapter 01
00:07:05.132 : en:Chapter 02
00:16:03.836 : en:Chapter 03
00:25:29.568 : en:Chapter 04
00:33:16.827 : en:Chapter 05
00:39:57.643 : en:Chapter 06
00:48:07.716 : en:Chapter 07
00:53:34.710 : en:Chapter 08
01:03:53.246 : en:Chapter 09
01:14:00.560 : en:Chapter 10
01:20:23.568 : en:Chapter 11
01:26:37.399 : en:Chapter 12
01:32:37.051 : en:Chapter 13
01:38:46.837 : en:Chapter 14
01:48:13.528 : en:Chapter 15
01:54:04.921 : en:Chapter 16
02:09:13.161 : en:Chapter 17

Скриншоты



Релиз от: Rip by:
[Профиль] [ЛС]
Кто просматривает тему:

Форум Тема Автор Размер
Аниме [HD 720p, 1080p] Гримгал пепла и иллюзий / Hai to Gensou no Grimgar [01-12 из 12] (2016) HDTVRip 720p | SEKAI-PROJECT Russian Mafia 6 GB
Телепередачи Динамо. Невероятный иллюзионист / Dynamo. Magician Impossible (2013) HDTVRip (Сезон 3, выпуск 1-4 из 4) sergej644 2.14 GB
Отечественные cериалы Золотая клетка (Иллюзия любви) [01-04 из 04] (2015) WEB-DLRip BOSS 5.47 GB
Отечественные мультфильмы Иллюзион (Елена Турова) [1990, Рисованный мультфильм, WEBRip] TorrentFilm 100 MB
Фильмы 2011 года Иллюзионист / The Illusionist (2006) BDRip sergej644 2.18 GB
Фильмы 2011 года Иллюзионист / The Illusionist (Нил Бёргер / Neil Burger) [2006, США, Чехия, триллер, драма, мелодрама, детектив, BDRip-AVC] Dub + Original (Eng) + Sub (Rus, Eng) painkiller 1.46 GB
Фильмы (DVD 5/9) Иллюзия обмана / Now You See Me (Луи Летерье / Louis Leterrier) [2013, Франция, США, триллер, криминал, детектив, BD-DVD5 (Custom)] [Расширенная версия / Extended cut] DUB + Sub Eng + Sub Rus +... sergej644 4.35 GB
Фильмы (HD DVD, Blu-ray и BDRemux) Иллюзия обмана 2 / Now You See Me 2 (2016) BDRemux 1080p от ExKinoRay | US Transfer | Лицензия достали все 32.84 GB
Показать сообщения:    

Текущее время: Сегодня 10:32

Часовой пояс: GMT



Вы не можете начинать темы
Вы не можете отвечать на сообщения
Вы не можете редактировать свои сообщения
Вы не можете удалять свои сообщения
Вы не можете голосовать в опросах
Вы не можете прикреплять файлы к сообщениям
Вы не можете скачивать файлы