Иллюзия обмана 2 / Now You See Me 2 (2016) BDRip | RUS Transfer | Лицензия

 
Автор Сообщение

достали все ®

Пол:

Стаж: 1 год 8 месяцев

Сообщений: 6600



Награды: 12 (Подробнее)

Top Releaser 3 (Количество: 1) Mega Releaser 1 (Количество: 1) За внесенный вклад в развитие сайта (Количество: 1)
Торрент-статистика

Создавать темы 20-Авг-2016 03:13

[Цитировать]

Информация о фильме
Название: Иллюзия обмана 2
Оригинальное название: Now You See Me 2
Год выхода: 2016
Жанр: Боевик, триллер, комедия
Режиссер: Джон М. Чу
В ролях: Лиззи Каплан, Дэниэл Рэдклифф, Дэйв Франко, Марк Руффало, Джесси Айзенберг, Морган Фриман, Вуди Харрельсон, Майкл Кейн
О фильме:
«Четыре всадника», команда лучших иллюзионистов мира, снова в сборе! Их «магия» стала еще совершеннее, а враги — опаснее. На сей раз им предстоит спасти свою репутацию и вывести на чистую воду жестокого техномагната…

Страна: США
Студия: Lionsgate, Summit Entertainment
Продолжительность: 02:09:29
Перевод: Профессиональный (полное дублирование) | Лицензия
Файл
Кодек: XviD
Качество: BDRip
Видео: 720x400 (16:9), 24.000 fps, XviD Build 73, 1233 kbps avg, 0.178 bit/pixel
Аудио: 48.0 kHz, AC3 Dolby Digital, 5/1 (L C R, Side: L R, LFE) ch, 384 kbps

МедиаИнфо

General
Complete name : Illjuzija.Obmana.2.2016.XviD.BDRip.by.GeneralFilm.avi
Format : AVI
Format/Info : Audio Video Interleave
File size : 1.46 GiB
Duration : 2h 8mn
Overall bit rate : 1 626 Kbps
Writing application : VirtualDubMod 1.5.10.3 | www.virtualdub-fr.org || (build 2550/release)
Writing library : VirtualDubMod build 2550/release
Video
ID : 0
Format : MPEG-4 Visual
Format profile : Advanced Simple@L5
Format settings, BVOP : 1
Format settings, QPel : No
Format settings, GMC : No warppoints
Format settings, Matrix : Custom
Codec ID : XVID
Codec ID/Hint : XviD
Duration : 2h 8mn
Bit rate : 1 233 Kbps
Width : 720 pixels
Height : 400 pixels
Display aspect ratio : 16:9
Frame rate : 24.000 fps
Color space : YUV
Chroma subsampling : 4:2:0
Bit depth : 8 bits
Scan type : Progressive
Compression mode : Lossy
Bits/(Pixel*Frame) : 0.178
Stream size : 1.11 GiB (76%)
Writing library : XviD 73
Audio
ID : 1
Format : AC-3
Format/Info : Audio Coding 3
Mode extension : CM (complete main)
Format settings, Endianness : Big
Codec ID : 2000
Duration : 2h 8mn
Bit rate mode : Constant
Bit rate : 384 Kbps
Channel(s) : 6 channels
Channel positions : Front: L C R, Side: L R, LFE
Sampling rate : 48.0 KHz
Frame rate : 31.250 fps (1536 spf)
Compression mode : Lossy
Stream size : 354 MiB (24%)
Alignment : Split accross interleaves
Interleave, duration : 42 ms (1.00 video frame)
Interleave, preload duratio : 500 ms

Скриншоты



[Профиль] [ЛС]
Кто просматривает тему:

Форум Тема Автор Размер
Аниме [HD 720p, 1080p] Гримгал пепла и иллюзий / Hai to Gensou no Grimgar [01-12 из 12] (2016) HDTVRip 720p | SEKAI-PROJECT Russian Mafia 6 GB
Телепередачи Динамо. Невероятный иллюзионист / Dynamo. Magician Impossible (2013) HDTVRip (Сезон 3, выпуск 1-4 из 4) sergej644 2.14 GB
Отечественные cериалы Золотая клетка (Иллюзия любви) [01-04 из 04] (2015) WEB-DLRip BOSS 5.47 GB
Отечественные мультфильмы Иллюзион (Елена Турова) [1990, Рисованный мультфильм, WEBRip] TorrentFilm 100 MB
Фильмы 2011 года Иллюзионист / The Illusionist (2006) BDRip sergej644 2.18 GB
Фильмы 2011 года Иллюзионист / The Illusionist (Нил Бёргер / Neil Burger) [2006, США, Чехия, триллер, драма, мелодрама, детектив, BDRip-AVC] Dub + Original (Eng) + Sub (Rus, Eng) painkiller 1.46 GB
Фильмы (DVD 5/9) Иллюзия обмана / Now You See Me (Луи Летерье / Louis Leterrier) [2013, Франция, США, триллер, криминал, детектив, BD-DVD5 (Custom)] [Расширенная версия / Extended cut] DUB + Sub Eng + Sub Rus +... sergej644 4.35 GB
Фильмы (HD DVD, Blu-ray и BDRemux) Иллюзия обмана 2 / Now You See Me 2 (2016) BDRemux 1080p от ExKinoRay | US Transfer | Лицензия достали все 32.84 GB
Показать сообщения:    

Текущее время: Сегодня 03:25

Часовой пояс: GMT



Вы не можете начинать темы
Вы не можете отвечать на сообщения
Вы не можете редактировать свои сообщения
Вы не можете удалять свои сообщения
Вы не можете голосовать в опросах
Вы не можете прикреплять файлы к сообщениям
Вы не можете скачивать файлы