Иллюзия любви / Mal de pierres (2016) BDRip 720p | iTunes

 
Автор Сообщение

BOSS ®

Пол:

Стаж: 3 года 7 месяцев

Сообщений: 10294

Откуда: ODESSA



Награды: 22 (Подробнее)

Mega Seeder 4 (Количество: 1) Mega Releaser 2 (Количество: 1) Top Releaser 4 (Количество: 1)
Торрент-статистика

Создавать темы 21-Фев-2017 05:44

[Цитировать]

Информация о фильме
Название: Иллюзия любви
Оригинальное название: Mal de pierres
Год выхода: 2016
Жанр: Драма, мелодрама
Режиссер: Николь Гарсиа
В ролях: Марион Котийяр, Луи Гаррель, Алекс Брендемюль, Брижит Роюан, Виктуар Ду Бойс, Алоиз Саваж, Дэниэл Пара, Чжихван Ким, Виктор Куиличини, Эндж Блэк-Берейциат
О фильме: Экранизация романа Милены Агус «Каменная болезнь» вызвала 7-минутную овацию зрителей после показа на Каннском кинофестивале. Сюжетная линия картины начинается в середине прошлого столетия и длится около двадцати лет. Режиссер Николь Гарсиа знакомит нас с историей молодой замужней француженки Габриэль (Марион Котийяр), выросшей в рамках консервативного послевоенного воспитания и рискнувшей влюбиться в ветерана Индокитайской войны, тем самым бросив вызов мнению порицающего ее общества. Стремясь реализовать всю разбуженную чувствами бушующую страсть, Габриэль не собирается останавливаться ни перед чем и готова следовать за своим любимым куда угодно. Но даст ли судьба шанс стать счастливой с учетом всех непростых обстоятельств?


Выпущено: Франция, Бельгия, Канада / Canal+ [fr], Ciné, Cofinova 12, France 3 Cinéma
Продолжительность: 02:00:33
Озвучивание: Профессиональное (многоголосное) [iTunes]
Файл
Формат: MKV
Качество: BDRip 720p
Видео: MPEG-4 AVC, 6034 kb/s, 1280x534
Аудио: Russian: AC3, 384 kb/s (6 ch) / French: AC3, 640 kb/s (6 ch)
Субтитры: Russian (Full)

MI

Общее
Уникальный идентификатор : 215778341559121198241192840045241923880 (0xA255659D97364D2CB41E8E5591017928)
Полное имя : D:загрузкиMal.de.pierres.2016.P.BDRip.720p.mkv
Формат : Matroska
Версия формата : Version 2
Размер файла : 6,06 Гбайт
Продолжительность : 2 ч. 0 м.
Общий поток : 7201 Кбит/сек
Дата кодирования : UTC 2017-02-21 00:38:06
Программа кодирования : mkvmerge v7.8.0 ('River Man') 32bit built on Apr 3 2015 12:11:22
Библиотека кодирования : libebml v1.3.1 + libmatroska v1.4.2
Видео
Идентификатор : 1
Формат : AVC
Формат/Информация : Advanced Video Codec
Профиль формата : High@L4.1
Параметр CABAC формата : Да
Параметр ReFrames формата : 12 кадров
Идентификатор кодека : V_MPEG4/ISO/AVC
Продолжительность : 2 ч. 0 м.
Битрейт : 6034 Кбит/сек
Ширина : 1280 пикселей
Высота : 534 пикселя
Соотношение сторон : 2,40:1
Режим частоты кадров : Постоянный
Частота кадров : 24,000 кадра/сек
Цветовое пространство : YUV
Субдискретизация насыщенности : 4:2:0
Битовая глубина : 8 бит
Тип развёртки : Прогрессивная
Бит/(Пиксели*Кадры) : 0.368
Размер потока : 5,08 Гбайт (84%)
Библиотека кодирования : x264 core 148 r2744+55 950084e t_mod_Custom [8-bit@all X86_64]
Настройки программы : cabac=1 / ref=12 / deblock=1:-3:-3 / analyse=0x3:0x133 / me=umh / subme=10 / psy=1 / fade_compensate=0.00 / psy_rd=0.95:0.00 / mixed_ref=1 / me_range=32 / chroma_me=0 / trellis=2 / 8x8dct=1 / cqm=0 / deadzone=21,11 / fast_pskip=0 / chroma_qp_offset=-2 / threads=12 / lookahead_threads=3 / sliced_threads=0 / nr=0 / decimate=0 / interlaced=0 / bluray_compat=0 / constrained_intra=0 / fgo=0 / bframes=13 / b_pyramid=2 / b_adapt=2 / b_bias=0 / direct=3 / weightb=1 / open_gop=0 / weightp=2 / keyint=250 / keyint_min=24 / scenecut=40 / intra_refresh=0 / rc=crf / mbtree=0 / crf=16.4000 / qcomp=0.60 / qpmin=0:0:0 / qpmax=69:69:69 / qpstep=4 / ip_ratio=1.20 / pb_ratio=1.10 / aq=3:0.85 / aq-sensitivity=10.00 / aq-factor=1.00:1.00:1.00 / aq2=0 / aq3=0 / zones=166469,173599,crf=22
Язык : English
Default : Да
Forced : Нет
Аудио #1
Идентификатор : 2
Формат : AC-3
Формат/Информация : Audio Coding 3
Расширение режима : CM (complete main)
Параметр Endianness формата : Big
Идентификатор кодека : A_AC3
Продолжительность : 2 ч. 0 м.
Вид битрейта : Постоянный
Битрейт : 384 Кбит/сек
Каналы : 6 каналов
Расположение каналов : Front: L C R, Side: L R, LFE
Частота : 48,0 КГц
Частота кадров : 31,250 кадров/сек (1536 spf)
Битовая глубина : 16 бит
Метод сжатия : С потерями
Размер потока : 331 Мбайт (5%)
Заголовок : iTunes
Язык : Russian
Default : Да
Forced : Нет
Аудио #2
Идентификатор : 3
Формат : AC-3
Формат/Информация : Audio Coding 3
Расширение режима : CM (complete main)
Параметр Endianness формата : Big
Идентификатор кодека : A_AC3
Продолжительность : 2 ч. 0 м.
Вид битрейта : Постоянный
Битрейт : 640 Кбит/сек
Каналы : 6 каналов
Расположение каналов : Front: L C R, Side: L R, LFE
Частота : 48,0 КГц
Частота кадров : 31,250 кадров/сек (1536 spf)
Битовая глубина : 16 бит
Метод сжатия : С потерями
Размер потока : 552 Мбайт (9%)
Язык : French
Default : Нет
Forced : Нет
Текст
Идентификатор : 4
Формат : UTF-8
Идентификатор кодека : S_TEXT/UTF8
Идентификатор кодека/Информация : UTF-8 Plain Text
Заголовок : Full
Язык : Russian
Default : Нет
Forced : Нет
Меню
00:00:00.000 : en:00:00:00.000
00:07:53.417 : en:00:07:53.417
00:14:30.417 : en:00:14:30.417
00:26:33.917 : en:00:26:33.917
00:38:00.917 : en:00:38:00.917
00:51:22.625 : en:00:51:22.625
01:01:33.500 : en:01:01:33.500
01:09:09.625 : en:01:09:09.625
01:16:39.958 : en:01:16:39.958
01:26:06.042 : en:01:26:06.042
01:38:15.417 : en:01:38:15.417
01:50:05.333 : en:01:50:05.333

Скриншоты




[Профиль] [ЛС]
Показать сообщения:    

Текущее время: Сегодня 09:50

Часовой пояс: GMT



Вы не можете начинать темы
Вы не можете отвечать на сообщения
Вы не можете редактировать свои сообщения
Вы не можете удалять свои сообщения
Вы не можете голосовать в опросах
Вы не можете прикреплять файлы к сообщениям
Вы не можете скачивать файлы