Иллюзион (Елена Турова) [1990, Рисованный мультфильм, WEBRip]

 
Автор Сообщение

TorrentFilm ®

Пол:

Стаж: 2 года

Сообщений: 7741



Награды: Нет

Торрент-статистика

Создавать темы 01-Янв-2016 00:19

[Цитировать]

Иллюзион
Страна: CCCР
Жанр: Рисованный мультфильм
Продолжительность: 00:09:56
Год выпуска: 1990
Русские субтитры: нет
Режиссёр: Елена Турова
Описание: Мультипликационный фильм для взрослых о простом жизненном цикле.
Доп. информация: „Беларусьфильм“
Сценарий:Е.Турова
Художник:В.Борохов
Оператор:Ю.Мильтнер
Раздача группы:
Качество: WEBRip
Формат: AVI
Видео: 512x384 (1.33:1), 25 fps, XviD Final 1.0.2 (build 36) ~1271 kbps avg, 0.26 bit/pixel
Аудио: 48 kHz, MPEG Layer 3, 2 ch, ~128.00 kbps avg
Субтитры: нет

Подробные технические данные

Format : AVIFormat/Info : Audio Video InterleaveFile size : 100 MiBDuration : 9mn 56sOverall bit rate : 1 409 KbpsWriting application : VirtualDubMod 1.5.10.2 (build 2540/release)Writing library : VirtualDubMod build 2540/release
VideoID : 0Format : MPEG-4 VisualFormat profile : Advanced Simple@L5Format settings, BVOP : 2Format settings, QPel : NoFormat settings, GMC : No warppointsFormat settings, Matrix : Default (H.263)Muxing mode : Packed bitstreamCodec ID : XVIDCodec ID/Hint : XviDDuration : 9mn 56sBit rate : 1 272 KbpsWidth : 512 pixelsHeight : 384 pixelsDisplay aspect ratio : 4:3Frame rate : 25.000 fpsColor space : YUVChroma subsampling : 4:2:0Bit depth : 8 bitsScan type : ProgressiveCompression mode : LossyBits/(Pixel*Frame) : 0.259Stream size : 90.5 MiB (90%)Writing library : XviD 1.0.2 (UTC 2004-08-29)
AudioID : 1Format : MPEG AudioFormat version : Version 1Format profile : Layer 3Mode : Joint stereoMode extension : MS StereoCodec ID : 55Codec ID/Hint : MP3Duration : 9mn 56sBit rate mode : ConstantBit rate : 128 KbpsChannel(s) : 2 channelsSampling rate : 48.0 KHzCompression mode : LossyStream size : 9.10 MiB (9%)Alignment : Aligned on interleavesInterleave, duration : 40 ms (1.00 video frame)Interleave, preload duration : 504 ms

Скриншоты

[Профиль] [ЛС]
Кто просматривает тему:

Форум Тема Автор Размер
Аниме [HD 720p, 1080p] Гримгал пепла и иллюзий / Hai to Gensou no Grimgar [01-12 из 12] (2016) HDTVRip 720p | SEKAI-PROJECT Russian Mafia 6 GB
Телепередачи Динамо. Невероятный иллюзионист / Dynamo. Magician Impossible (2013) HDTVRip (Сезон 3, выпуск 1-4 из 4) sergej644 2.14 GB
Отечественные cериалы Золотая клетка (Иллюзия любви) [01-04 из 04] (2015) WEB-DLRip BOSS 5.47 GB
Фильмы 2011 года Иллюзионист / The Illusionist (2006) BDRip sergej644 2.18 GB
Фильмы 2011 года Иллюзионист / The Illusionist (Нил Бёргер / Neil Burger) [2006, США, Чехия, триллер, драма, мелодрама, детектив, BDRip-AVC] Dub + Original (Eng) + Sub (Rus, Eng) painkiller 1.46 GB
Фильмы (DVD 5/9) Иллюзия обмана / Now You See Me (Луи Летерье / Louis Leterrier) [2013, Франция, США, триллер, криминал, детектив, BD-DVD5 (Custom)] [Расширенная версия / Extended cut] DUB + Sub Eng + Sub Rus +... sergej644 4.35 GB
Фильмы (HD DVD, Blu-ray и BDRemux) Иллюзия обмана 2 / Now You See Me 2 (2016) BDRemux 1080p от ExKinoRay | US Transfer | Лицензия достали все 32.84 GB
Фильмы (HD DVD, Blu-ray и BDRemux) Иллюзия обмана 2 / Now You See Me 2 (2016) BDRemux 1080р | D достали все 39.91 GB
Показать сообщения:    

Текущее время: Сегодня 12:10

Часовой пояс: GMT



Вы не можете начинать темы
Вы не можете отвечать на сообщения
Вы не можете редактировать свои сообщения
Вы не можете удалять свои сообщения
Вы не можете голосовать в опросах
Вы не можете прикреплять файлы к сообщениям
Вы не можете скачивать файлы