Иллюзионист / The Illusionist (2006) BDRip 720p | D, A

 
Автор Сообщение

BOSS ®

Пол:

Стаж: 3 года 3 месяца

Сообщений: 9226

Откуда: ODESSA



Награды: 22 (Подробнее)

Mega Releaser 1 (Количество: 1) Mega Releaser 2 (Количество: 1) Top Keeper 4 (Количество: 1)
Торрент-статистика

Создавать темы 14-Авг-2017 17:20

[Цитировать]

Информация о фильме
Название: Иллюзионист
Оригинальное название: The Illusionist
Год выхода: 2006
Жанр: триллер, драма, мелодрама, детектив
Режиссер: Нил Бёргер
В ролях: Эдвард Нортон, Пол Джаматти, Джессика Бил, Руфус Сьюэлл, Эдди Марсан, Джейк Вуд, Том Фишер, Аарон Тейлор-Джонсон, Элинор Томлинсон, Карл Джонсон
О фильме:
Вена. Начало 20 века. В городе появляется загадочный человек, называвший себя иллюзионистом Эйзенхаймом. Он показывает публике невиданные фокусы, которые кажутся не иначе как волшебством.
Слава о необыкновенном чародее доходит до кронпринца Леопольда, который почтил своим присутствием одно из представлений Эйзенхайма. Леопольда сопровождает его будущая невеста Софи. Её появление в зале дает толчок для целой вереницы необъяснимых событий, корни которых уходят в прошлое…

Страна: США, Чехия
Студия: Bob Yari Productions, Bull's Eye Entertainment, Contagious Entertainment
Продолжительность: 01:48:57
Перевод: Профессиональный (дублированный) Мосфильм-Мастер + Авторский (одноголосый, закадровый) В.Королёв + Авторский (одноголосый, закадровый) В.Горчаков + Профессиональный (многоголосый, закадровый) 1+1
Релиз:
Файл
Формат: Matroska
Качество: BDRip 720p
Видео: 1280x720 at 23.976 fps, x264@L4.1, ~8100 kbps avg
Аудио#1: Russian: 48 kHz, AC3, 3/2 (L,C,R,l,r) + LFE ch, ~448 kbps |Дубляж, Мосфильм-Мастер|
Аудио#2: Russian: 48 kHz, DTS, 3/2 (L,C,R,l,r) + LFE ch, ~1509 kbps |Авторский, В.Королёв|
Аудио#3: Russian: 48 kHz, DTS, 3/2 (L,C,R,l,r) + LFE ch, ~1509 kbps |Авторский, В.Горчаков|
Аудио#4: Ukrainian: 48 kHz, AC3, 2/0 (L,R) ch, ~192 kbps |Многоголосый закадровый, 1+1|
Аудио#5: English: 48 kHz, DTS, 3/2 (L,C,R,l,r) + LFE ch, ~1509 kbps
Субтитры: Russian, English, English (SDH)
***Сохранены и подписаны оригинальные главы как на Blu-ray.
***Видеоряд - VietHD!

Знаете ли вы, что...

Фильм снят по мотивам рассказа Стивена Миллхаузера «Иллюзионист Айзенхайм» (Eisenheim the Illusionist, 1990).
Несмотря на то что действие фильма происходит в Австрии, фильм большей частью был снят в Чешской Республике. Город Вена, в котором разворачивались основные события, был снят в чешском городе Табор и Праге. Деревня, в которой вырос Эйзенхайм, была снята в Чешском Крумлове. Замок принца Леопольда — это замок Конопиште, расположенный около Бенешова, в котором жил Франц Фердинанд — австрийский эрцгерцог. Остальные эпизоды фильма были сняты на киностудии «Баррандов» в Праге.
Часть отснятых сцен не вошла в финальную версию фильма, включая сцену с участием Робби Кэя.
Для полного погружения в роль Эдвард Нортон стал учеником известного иллюзиониста Джеймса Фридмана. Несмотря на это, в некоторых сценах мы видим руки Фридмана, а не Нортона.
Хотя история «Иллюзиониста» является вымыслом, некоторые её детали основаны на биографии австрийского Наследного Принца Рудольфа, сына Императора Франца Иосифа. Как раз тот портрет, который Айзенхайм изображает при помощи фокуса во дворце, на самом деле и есть портрет Франца Иосифа. Мёртвые тела Рудольфа и его любовницы Баронессы Мэри Ветсеры были найдены в его охотничьем домике в Майерлинге 30 января 1889 года. Имперская семья на протяжении многих лет придавала этому событию налет таинственности.
В сцене, когда Принц Леопольд стреляет из ружья, к нему подходит инспектор Уль, чтобы сообщить о тайных встречах Софии и Айзенхайма. В последующем их диалоге словом «прелюбодействовать» заменили слово «Fucking», чтобы картина смогла достичь рейтинга PG-13, который исключает слово на букву «F».

MI

Общее
Уникальный идентификатор : 187364857082800020050867392156864388382 (0x8CF528AC3D3501AB95536D4FF4E49D1E)
Полное имя : The.Illusionist.2006.720p.BluRay.3xRus.Ukr.Eng.HDCLUB-VietHD.mkv
Формат : Matroska
Версия формата : Version 4 / Version 2
Размер файла : 10,3 Гбайт
Продолжительность : 1 ч. 48 м.
Общий поток : 13,5 Мбит/сек
Название фильма : The Illusionist (2006)
Дата кодирования : UTC 2016-01-12 04:08:38
Программа кодирования : mkvmerge v8.8.0 ('Wind at my back') 64bit
Библиотека кодирования : libebml v1.3.3 + libmatroska v1.4.4
Attachment : Yes
Видео
Идентификатор : 1
Формат : AVC
Формат/Информация : Advanced Video Codec
Профиль формата : High@L4.1
Параметр CABAC формата : Да
Параметр ReFrames формата : 9 кадров
Идентификатор кодека : V_MPEG4/ISO/AVC
Продолжительность : 1 ч. 48 м.
Битрейт : 8098 Кбит/сек
Ширина : 1280 пикселей
Высота : 720 пикселей
Соотношение сторон : 16:9
Режим частоты кадров : Постоянный
Частота кадров : 23,976 кадра/сек
Цветовое пространство : YUV
Субдискретизация насыщенности : 4:2:0
Битовая глубина : 8 бит
Тип развёртки : Прогрессивная
Бит/(Пиксели*Кадры) : 0.366
Размер потока : 6,16 Гбайт (60%)
Заголовок : Release for HDCLUB
Библиотека кодирования : x264 core 133 r2334 a3ac64b
Настройки программы : cabac=1 / ref=9 / deblock=1:-3:-3 / analyse=0x3:0x133 / me=umh / subme=10 / psy=1 / psy_rd=1.05:0.00 / mixed_ref=1 / me_range=24 / chroma_me=1 / trellis=2 / 8x8dct=1 / cqm=0 / deadzone=21,11 / fast_pskip=0 / chroma_qp_offset=-2 / threads=6 / lookahead_threads=1 / sliced_threads=0 / nr=0 / decimate=0 / interlaced=0 / bluray_compat=0 / constrained_intra=0 / bframes=10 / b_pyramid=2 / b_adapt=2 / b_bias=0 / direct=3 / weightb=1 / open_gop=0 / weightp=2 / keyint=250 / keyint_min=23 / scenecut=40 / intra_refresh=0 / rc=crf / mbtree=0 / crf=15.0 / qcomp=0.65 / qpmin=0 / qpmax=69 / qpstep=4 / ip_ratio=1.40 / pb_ratio=1.30 / aq=1:0.70 / zones=411,3826,crf=13.2/12101,12867,crf=13.5/15581,16082,crf=13.5/53586,53955,crf=13.5/55061,55201,crf=13.5/63713,70358,crf=13.2/148521,148602,crf=13.2
Язык : English
Default : Да
Forced : Нет
Аудио #1
Идентификатор : 2
Формат : AC-3
Формат/Информация : Audio Coding 3
Расширение режима : CM (complete main)
Параметр Endianness формата : Big
Идентификатор кодека : A_AC3
Продолжительность : 1 ч. 48 м.
Вид битрейта : Постоянный
Битрейт : 448 Кбит/сек
Каналы : 6 каналов
Расположение каналов : Front: L C R, Side: L R, LFE
Частота : 48,0 КГц
Битовая глубина : 16 бит
Метод сжатия : С потерями
Размер потока : 349 Мбайт (3%)
Заголовок : Дубляж
Язык : Russian
Default : Да
Forced : Нет
Аудио #2
Идентификатор : 3
Формат : DTS
Формат/Информация : Digital Theater Systems
Режим : 16
Параметр Endianness формата : Big
Идентификатор кодека : A_DTS
Продолжительность : 1 ч. 48 м.
Вид битрейта : Постоянный
Битрейт : 1509 Кбит/сек
Каналы : 6 каналов
Расположение каналов : Front: L C R, Side: L R, LFE
Частота : 48,0 КГц
Битовая глубина : 24 бит
Метод сжатия : С потерями
Размер потока : 1,15 Гбайт (11%)
Заголовок : Королёв
Язык : Russian
Default : Нет
Forced : Нет
Аудио #3
Идентификатор : 4
Формат : DTS
Формат/Информация : Digital Theater Systems
Режим : 16
Параметр Endianness формата : Big
Идентификатор кодека : A_DTS
Продолжительность : 1 ч. 48 м.
Вид битрейта : Постоянный
Битрейт : 1509 Кбит/сек
Каналы : 6 каналов
Расположение каналов : Front: L C R, Side: L R, LFE
Частота : 48,0 КГц
Битовая глубина : 24 бит
Метод сжатия : С потерями
Размер потока : 1,15 Гбайт (11%)
Заголовок : Горчаков
Язык : Russian
Default : Нет
Forced : Нет
Аудио #4
Идентификатор : 5
Формат : AC-3
Формат/Информация : Audio Coding 3
Расширение режима : CM (complete main)
Параметр Endianness формата : Big
Идентификатор кодека : A_AC3
Продолжительность : 1 ч. 48 м.
Вид битрейта : Постоянный
Битрейт : 192 Кбит/сек
Каналы : 2 канала
Расположение каналов : Front: L R
Частота : 48,0 КГц
Битовая глубина : 16 бит
Метод сжатия : С потерями
Размер потока : 150 Мбайт (1%)
Заголовок : Многоголосый, 1+1
Язык : Ukrainian
Default : Нет
Forced : Нет
Аудио #5
Идентификатор : 6
Формат : DTS
Формат/Информация : Digital Theater Systems
Режим : 16
Параметр Endianness формата : Big
Идентификатор кодека : A_DTS
Продолжительность : 1 ч. 48 м.
Вид битрейта : Постоянный
Битрейт : 1509 Кбит/сек
Каналы : 6 каналов
Расположение каналов : Front: L C R, Side: L R, LFE
Частота : 48,0 КГц
Битовая глубина : 24 бит
Метод сжатия : С потерями
Размер потока : 1,15 Гбайт (11%)
Язык : English
Default : Нет
Forced : Нет
Текст #1
Идентификатор : 7
Формат : UTF-8
Идентификатор кодека : S_TEXT/UTF8
Идентификатор кодека/Информация : UTF-8 Plain Text
Язык : Russian
Default : Нет
Forced : Нет
Текст #2
Идентификатор : 8
Формат : UTF-8
Идентификатор кодека : S_TEXT/UTF8
Идентификатор кодека/Информация : UTF-8 Plain Text
Язык : English
Default : Нет
Forced : Нет
Текст #3
Идентификатор : 9
Формат : UTF-8
Идентификатор кодека : S_TEXT/UTF8
Идентификатор кодека/Информация : UTF-8 Plain Text
Заголовок : SDH
Язык : English
Default : Нет
Forced : Нет
Меню
00:00:00.000 : en:Main Titles / the Arrest
00:06:18.169 : en:Chance Encounter
00:13:05.159 : en:Childhood Friends
00:19:07.646 : en:Bending Time
00:25:02.126 : en:Creating Coins
00:28:55.108 : en:Trade Secret
00:32:51.845 : en:Soul Reflections
00:37:39.883 : en:The Crown Prince
00:44:51.230 : en:Wishful Thinking
00:51:10.693 : en:A Polite Warning
00:57:36.828 : en:Excalibur
01:03:41.901 : en:Forbidden Love
01:09:34.253 : en:Surveillance
01:16:12.359 : en:Sophie's Defiance
01:22:32.573 : en:Consequences
01:25:48.769 : en:Murder Investigation
01:29:07.467 : en:The Illusionist
01:32:59.282 : en:Spirit Manifestations
01:36:48.511 : en:"It's Not Real"
01:40:17.178 : en:Sophie Speaks
01:44:22.965 : en:To Be with Her

Скриншоты

[Профиль] [ЛС]
Показать сообщения:    

Текущее время: Сегодня 07:31

Часовой пояс: GMT



Вы не можете начинать темы
Вы не можете отвечать на сообщения
Вы не можете редактировать свои сообщения
Вы не можете удалять свои сообщения
Вы не можете голосовать в опросах
Вы не можете прикреплять файлы к сообщениям
Вы не можете скачивать файлы