Иисус из Назарета / Jesus of Nazareth (1 - 4 серия из 4)(Франко Дзеффирелли / Franco Zeffirelli)[1977, Драма, биография, история,BDRip 720p] [MVO] + [ENG] + [GER] + [SUB]

 
Автор Сообщение

sergej644 ®

Пол:

Стаж: 4 года 11 месяцев

Сообщений: 6042

Откуда: Soviet Union



Награды: Нет

Торрент-статистика

Создавать темы 27-Июн-2014 11:40

[Цитировать]

-Иисус из Назарета / Jesus of Nazareth
-
Год выпуска: 1977
Премьера (мир): 3 апреля 1977 года
Жанр: Драма, биография, история
Выпущено: Великобритания, Италия, Incorporated Television Company (ITC), Radiotelevisione Italiana
Продолжительность: 01:36:45 / 01:38:03 / 01:37:46 / 01:38:39
Перевод: Профессиональный многоголосый
Субтитры: Русские, английские
Режиссер: Франко Дзеффирелли / Franco Zeffirelli

В ролях:
Роберт Пауэлл, Энн Бэнкрофт, Эрнест Боргнайн, Джеймс Фарентино, Иэн МакШейн, Кристофер Пламмер, Оливия Хасси, Тони Фогель, Джон Даттин, Майкл Йорк, Джонатан Мюллер, Серджо Николай, Джеймс Мейсон, Лоуренс Оливье, Энтони Куинн, Джон Истхэм, Иэн Холм, Ли Монтегю, Оливер Тобиас, Норман Боулер, Роберт Битти, Джон Филлипс, Кен Донс, Нэнси Невинсон, Ренато Терра, Рой Холдер, Джонатан Адамс, Майкл Кронин, Форбс Коллинз, Мюррей Сейлем, Майкл Хофи, Брюс Лидингтон, Дерек Годфри, Роберт Дэвей, Оливер Смит, Джордж Камилье, Френсис Де Фолфф, Тим Пирс, Пол Карран, Марк Иден, Бруно Барнаби
-О фильме:
Жизненный путь Иисуса Христа от Рождества до Вознесения воссоздан здесь до мельчайших подробностей. Это биография реального человека, именно в этом качестве вызывающая интерес у жителя XX столетия с его повышенным интересом к собственной личности. Даже те, кто хорошо знаком с текстом Нового Завета, редко различают за ним историческое событие — настолько от нас далеки эти времена. Здесь в старые мехи влито молодое вино. Юношеские странствия и крещение, обретение дара и проповедь нового учения, опала, предательство учеников и мученическая смерть — все это вехи земного пути Иисуса, история сына человеческого.
-

дополнительная информация

«Иисус из Назарета» — телевизионный художественный фильм производства Италии и Великобритании, снятый режиссёром Франко Дзеффирелли на библейские темы.
Фильм состоит из четырёх частей: трёх по 90 мин и одной — 105 мин.
Экранизация сказаний Нового Завета о жизни Иисуса Христа, поставленная Франко Дзеффирелли для англо-итальянского ТВ по заказу Ватикана
К работе над этой эпопеей были привлечены известные кинематографисты — сценаристы Энтони Бёрджесс и Сузо Чекки Д’Амико, операторы Армандо Наннуцци и Дэвид Уоткин, композитор Морис Жарр, художники Джанни Кваранта (декорации) и Марсель Эскофье (костюмы) и серьёзный актёрский состав.
-

1 серия

Качество: BDRip (720p)
Формат: MKV
Видео: AVC, ~ 5214 Кpbs, 960х720, 4:3, 24.000 кадра/с, 0.314 bit/pic
Аудио: Russian, AC3, 2 ch, 48,0 KHz, 192 Кbps
Аудио 2: English, AC3, 2 Ch, 48,0 KHz, 192 kbps
Аудио 3: Germany, AC3, 2 Ch, 48,0 KHz, 160 kbps
Субтитры: Russian, English (отключаемые)

скриншоты

MediaInfo

Общее
Уникальный идентификатор         : 187208610318848771129199143468656356649 (0x8CD7111CD21A625599621B2CD1DDED29)
Полное имя                       : D:\Torent files\Iisus.iz.Nazareta.1977.x264.BDRip.720p\Iisus.iz.Nazareta.1.(1977).x264.BDRip.720p.mkv
Формат                           : Matroska
Версия формата                   : Version 2
Размер файла                     : 3,90 Гбайт
Продолжительность                : 1 ч. 36 м.
Режим общего битрейта            : Переменный
Общий поток                      : 5773 Кбит/сек
Название фильма                  : Иисус из Назарета (1997) 1-я часть. (Jesus of Nazareth)
Дата кодирования                 : UTC 2012-07-27 17:52:29
Программа кодирования            : mkvmerge v5.6.0 ('Kenya Kane') built on May 27 2012 16:44:04
Библиотека кодирования           : libebml v1.2.3 + libmatroska v1.3.0
Обложка                          : Cover
Видео
Идентификатор                    : 1
Формат                           : AVC
Формат/Информация                : Advanced Video Codec
Профиль формата                  : High@L4.1
Параметр CABAC формата           : Да
Параметр ReFrames формата        : 6 кадров
Идентификатор кодека             : V_MPEG4/ISO/AVC
Продолжительность                : 1 ч. 36 м.
Вид битрейта                     : Переменный
Битрейт                          : 5214 Кбит/сек
Максимальный битрейт             : 25,0 Мбит/сек
Ширина                           : 960 пикселей
Высота                           : 720 пикселей
Соотношение сторон               : 4:3
Частота кадров                   : 24,000 кадра/сек
Цветовое пространство            : YUV
Субдискретизация насыщенности    : 4:2:0
Битовая глубина                  : 8 бит
Тип развёртки                    : Прогрессивная
Бит/(Пиксели*Кадры)              : 0.314
Размер потока                    : 3,46 Гбайт (89%)
Заголовок                        : Иисус из Назарета (1997) 1-я часть. (Jesus of Nazareth)
Библиотека кодирования           : x264 core 114 r1924 08d04a4
Настройки программы              : cabac=1 / ref=6 / deblock=1:0:0 / analyse=0x3:0x133 / me=umh / subme=8 / psy=1 / psy_rd=1.00:0.00 / mixed_ref=1 / me_range=16 / chroma_me=1 / trellis=1 / 8x8dct=1 / cqm=0 / deadzone=21,11 / fast_pskip=1 / chroma_qp_offset=-2 / threads=6 / sliced_threads=0 / nr=0 / decimate=1 / interlaced=0 / constrained_intra=0 / bframes=8 / b_pyramid=0 / b_adapt=1 / b_bias=0 / direct=1 / weightb=1 / open_gop=0 / weightp=2 / keyint=240 / keyint_min=24 / scenecut=40 / intra_refresh=0 / rc_lookahead=40 / rc=2pass / mbtree=1 / bitrate=5214 / ratetol=1.0 / qcomp=0.60 / qpmin=0 / qpmax=69 / qpstep=4 / cplxblur=20.0 / qblur=0.5 / vbv_maxrate=25000 / vbv_bufsize=25000 / nal_hrd=vbr / ip_ratio=1.40 / aq=1:1.00
Язык                             : Russian
Аудио #1
Идентификатор                    : 2
Формат                           : AC-3
Формат/Информация                : Audio Coding 3
Профиль формата                  : Dolby Digital
Расширение режима                : CM (complete main)
Идентификатор кодека             : A_AC3
Продолжительность                : 1 ч. 36 м.
Вид битрейта                     : Постоянный
Битрейт                          : 192 Кбит/сек
Каналы                           : 2 канала
Расположение каналов             : Front: L R
Частота                          : 48,0 КГц
Битовая глубина                  : 16 бит
Метод сжатия                     : С потерями
Размер потока                    : 133 Мбайт (3%)
Заголовок                        : Профессиональный многоголосый
Язык                             : Russian
Аудио #2
Идентификатор                    : 3
Формат                           : AC-3
Формат/Информация                : Audio Coding 3
Расширение режима                : CM (complete main)
Идентификатор кодека             : A_AC3
Продолжительность                : 1 ч. 36 м.
Вид битрейта                     : Постоянный
Битрейт                          : 192 Кбит/сек
Каналы                           : 2 канала
Расположение каналов             : Front: L R
Частота                          : 48,0 КГц
Битовая глубина                  : 16 бит
Метод сжатия                     : С потерями
Размер потока                    : 133 Мбайт (3%)
Заголовок                        : Английский
Язык                             : English
Аудио #3
Идентификатор                    : 4
Формат                           : AC-3
Формат/Информация                : Audio Coding 3
Расширение режима                : CM (complete main)
Идентификатор кодека             : A_AC3
Продолжительность                : 1 ч. 36 м.
Вид битрейта                     : Постоянный
Битрейт                          : 160 Кбит/сек
Каналы                           : 2 канала
Расположение каналов             : Front: L R
Частота                          : 44,1 КГц
Битовая глубина                  : 16 бит
Метод сжатия                     : С потерями
Размер потока                    : 111 Мбайт (3%)
Заголовок                        : Немецкий
Язык                             : German
Текст #1
Идентификатор                    : 5
Формат                           : PGS
Режим смешивания                 : zlib
Идентификатор кодека             : S_HDMV/PGS
Идентификатор кодека/Информация  : The same subtitle format used on BDs/HD-DVDs
Заголовок                        : Русские
Язык                             : Russian
Текст #2
Идентификатор                    : 6
Формат                           : UTF-8
Идентификатор кодека             : S_TEXT/UTF8
Идентификатор кодека/Информация  : UTF-8 Plain Text
Заголовок                        : Английские
Язык                             : English
Меню
00:00:01.000                     : ru:Начало фильма
00:05:00.000                     : ru:Глава №-01
00:10:00.000                     : ru:Глава №-02
00:15:00.000                     : ru:Глава №-03
00:20:00.000                     : ru:Глава №-04
00:25:00.000                     : ru:Глава №-05
00:30:00.000                     : ru:Глава №-06
00:35:00.000                     : ru:Глава №-07
00:40:00.000                     : ru:Глава №-08
00:45:00.000                     : ru:Глава №-09
00:50:00.000                     : ru:Глава №-10
00:55:00.000                     : ru:Глава №-11
01:00:00.000                     : ru:Глава №-12
01:05:00.000                     : ru:Глава №-13
01:10:00.000                     : ru:Глава №-14
01:15:00.000                     : ru:Глава №-15
01:20:00.000                     : ru:Глава №-16
01:25:00.000                     : ru:Глава №-17
01:30:00.000                     : ru:Глава №-18
01:35:00.000                     : ru:Глава №-19 (Конец фильма)

2 серия

Качество: BDRip (720p)
Видео: AVC, ~ 4922 Кpbs, 960х720, 4:3, 24.000 кадра/с, 0.297 bit/pic
Аудио: Russian, AC3, 2 ch, 48,0 KHz, 192 Кbps
Аудио 2: English, AC3, 2 Ch, 48,0 KHz, 192 kbps
Аудио 3: Germany, AC3, 2 Ch, 48,0 KHz, 384 kbps
Субтитры: Russian, English (отключаемые)

скриншоты

MediaInfo

Общее
Уникальный идентификатор         : 203400003688301891211258113064176260914 (0x99056A708111A58F89AF285C39691732)
Полное имя                       : D:\Torent files\Iisus.iz.Nazareta.1977.x264.BDRip.720p\Iisus.iz.Nazareta.2.(1977).x264.BDRip.720p.mkv
Формат                           : Matroska
Версия формата                   : Version 2
Размер файла                     : 3,91 Гбайт
Продолжительность                : 1 ч. 38 м.
Режим общего битрейта            : Переменный
Общий поток                      : 5705 Кбит/сек
Название фильма                  : Иисус из Назарета (1997) 2-я часть. (Jesus of Nazareth)
Дата кодирования                 : UTC 2012-07-27 17:54:21
Программа кодирования            : mkvmerge v5.6.0 ('Kenya Kane') built on May 27 2012 16:44:04
Библиотека кодирования           : libebml v1.2.3 + libmatroska v1.3.0
Обложка                          : Cover
Видео
Идентификатор                    : 1
Формат                           : AVC
Формат/Информация                : Advanced Video Codec
Профиль формата                  : High@L4.1
Параметр CABAC формата           : Да
Параметр ReFrames формата        : 6 кадров
Идентификатор кодека             : V_MPEG4/ISO/AVC
Продолжительность                : 1 ч. 38 м.
Вид битрейта                     : Переменный
Битрейт                          : 4922 Кбит/сек
Максимальный битрейт             : 25,0 Мбит/сек
Ширина                           : 960 пикселей
Высота                           : 720 пикселей
Соотношение сторон               : 4:3
Частота кадров                   : 24,000 кадра/сек
Цветовое пространство            : YUV
Субдискретизация насыщенности    : 4:2:0
Битовая глубина                  : 8 бит
Тип развёртки                    : Прогрессивная
Бит/(Пиксели*Кадры)              : 0.297
Размер потока                    : 3,30 Гбайт (85%)
Заголовок                        : Иисус из Назарета (1997) 2-я часть. (Jesus of Nazareth)
Библиотека кодирования           : x264 core 114 r1924 08d04a4
Настройки программы              : cabac=1 / ref=6 / deblock=1:0:0 / analyse=0x3:0x133 / me=umh / subme=8 / psy=1 / psy_rd=1.00:0.00 / mixed_ref=0 / me_range=16 / chroma_me=1 / trellis=1 / 8x8dct=1 / cqm=0 / deadzone=21,11 / fast_pskip=1 / chroma_qp_offset=-2 / threads=3 / sliced_threads=0 / nr=0 / decimate=1 / interlaced=0 / constrained_intra=0 / bframes=8 / b_pyramid=0 / b_adapt=1 / b_bias=0 / direct=1 / weightb=1 / open_gop=0 / weightp=2 / keyint=240 / keyint_min=24 / scenecut=40 / intra_refresh=0 / rc_lookahead=40 / rc=2pass / mbtree=1 / bitrate=4922 / ratetol=1.0 / qcomp=0.60 / qpmin=0 / qpmax=69 / qpstep=4 / cplxblur=20.0 / qblur=0.5 / vbv_maxrate=25000 / vbv_bufsize=25000 / nal_hrd=vbr / ip_ratio=1.40 / aq=1:1.00
Язык                             : Russian
Аудио #1
Идентификатор                    : 2
Формат                           : AC-3
Формат/Информация                : Audio Coding 3
Профиль формата                  : Dolby Digital
Расширение режима                : CM (complete main)
Идентификатор кодека             : A_AC3
Продолжительность                : 1 ч. 38 м.
Вид битрейта                     : Постоянный
Битрейт                          : 192 Кбит/сек
Каналы                           : 2 канала
Расположение каналов             : Front: L R
Частота                          : 48,0 КГц
Битовая глубина                  : 16 бит
Метод сжатия                     : С потерями
Размер потока                    : 135 Мбайт (3%)
Заголовок                        : Профессиональный многоголосый
Язык                             : Russian
Аудио #2
Идентификатор                    : 3
Формат                           : AC-3
Формат/Информация                : Audio Coding 3
Расширение режима                : CM (complete main)
Идентификатор кодека             : A_AC3
Продолжительность                : 1 ч. 38 м.
Вид битрейта                     : Постоянный
Битрейт                          : 192 Кбит/сек
Каналы                           : 2 канала
Расположение каналов             : Front: L R
Частота                          : 48,0 КГц
Битовая глубина                  : 16 бит
Метод сжатия                     : С потерями
Размер потока                    : 135 Мбайт (3%)
Заголовок                        : Английский
Язык                             : English
Аудио #3
Идентификатор                    : 4
Формат                           : AC-3
Формат/Информация                : Audio Coding 3
Расширение режима                : CM (complete main)
Идентификатор кодека             : A_AC3
Продолжительность                : 1 ч. 38 м.
Вид битрейта                     : Постоянный
Битрейт                          : 384 Кбит/сек
Каналы                           : 2 канала
Расположение каналов             : Front: L R
Частота                          : 44,1 КГц
Битовая глубина                  : 16 бит
Метод сжатия                     : С потерями
Размер потока                    : 269 Мбайт (7%)
Заголовок                        : Немецкий
Язык                             : German
Текст #1
Идентификатор                    : 5
Формат                           : PGS
Режим смешивания                 : zlib
Идентификатор кодека             : S_HDMV/PGS
Идентификатор кодека/Информация  : The same subtitle format used on BDs/HD-DVDs
Заголовок                        : Русские
Язык                             : Russian
Текст #2
Идентификатор                    : 6
Формат                           : UTF-8
Идентификатор кодека             : S_TEXT/UTF8
Идентификатор кодека/Информация  : UTF-8 Plain Text
Заголовок                        : Английские
Язык                             : English
Меню
00:00:01.000                     : ru:Начало фильма
00:05:00.000                     : ru:Глава №-01
00:10:00.000                     : ru:Глава №-02
00:15:00.000                     : ru:Глава №-03
00:20:00.000                     : ru:Глава №-04
00:25:00.000                     : ru:Глава №-05
00:30:00.000                     : ru:Глава №-06
00:35:00.000                     : ru:Глава №-07
00:40:00.000                     : ru:Глава №-08
00:45:00.000                     : ru:Глава №-09
00:50:00.000                     : ru:Глава №-10
00:55:00.000                     : ru:Глава №-11
01:00:00.000                     : ru:Глава №-12
01:05:00.000                     : ru:Глава №-13
01:10:00.000                     : ru:Глава №-14
01:15:00.000                     : ru:Глава №-15
01:20:00.000                     : ru:Глава №-16
01:25:00.000                     : ru:Глава №-17
01:30:00.000                     : ru:Глава №-18
01:35:00.000                     : ru:Глава №-19 (Конец фильма)

3 серия

Качество: BDRip (720p)
Формат: MKV
Видео: AVC, ~ 5165 Кpbs, 960х720, 4:3, 24.000 кадра/с, 0.311 bit/pic
Аудио: Russian, AC3, 2 ch, 48,0 KHz, 192 Кbps
Аудио 2: English, AC3, 2 Ch, 48,0 KHz, 192 kbps
Аудио 3: Germany, AC3, 2 Ch, 48,0 KHz, 192 kbps
Субтитры: Russian, English (отключаемые)

скриншоты

MediaInfo

Общее
Уникальный идентификатор         : 212901250533134039609059113837175658521 (0xA02B4A137DF76CBA8ACDDBA4AF6E5819)
Полное имя                       : D:\Torent files\Iisus.iz.Nazareta.1977.x264.BDRip.720p\Iisus.iz.Nazareta.3.(1977).x264.BDRip.720p.mkv
Формат                           : Matroska
Версия формата                   : Version 2
Размер файла                     : 3,93 Гбайт
Продолжительность                : 1 ч. 37 м.
Режим общего битрейта            : Переменный
Общий поток                      : 5755 Кбит/сек
Название фильма                  : Иисус из Назарета (1997) 3-я часть. (Jesus of Nazareth)
Дата кодирования                 : UTC 2012-07-27 17:56:21
Программа кодирования            : mkvmerge v5.6.0 ('Kenya Kane') built on May 27 2012 16:44:04
Библиотека кодирования           : libebml v1.2.3 + libmatroska v1.3.0
Обложка                          : Cover
Видео
Идентификатор                    : 1
Формат                           : AVC
Формат/Информация                : Advanced Video Codec
Профиль формата                  : High@L4.1
Параметр CABAC формата           : Да
Параметр ReFrames формата        : 6 кадров
Идентификатор кодека             : V_MPEG4/ISO/AVC
Продолжительность                : 1 ч. 37 м.
Вид битрейта                     : Переменный
Битрейт                          : 5165 Кбит/сек
Максимальный битрейт             : 25,0 Мбит/сек
Ширина                           : 960 пикселей
Высота                           : 720 пикселей
Соотношение сторон               : 4:3
Частота кадров                   : 24,000 кадра/сек
Цветовое пространство            : YUV
Субдискретизация насыщенности    : 4:2:0
Битовая глубина                  : 8 бит
Тип развёртки                    : Прогрессивная
Бит/(Пиксели*Кадры)              : 0.311
Размер потока                    : 3,46 Гбайт (88%)
Заголовок                        : Иисус из Назарета (1997) 3-я часть. (Jesus of Nazareth)
Библиотека кодирования           : x264 core 114 r1924 08d04a4
Настройки программы              : cabac=1 / ref=6 / deblock=1:0:0 / analyse=0x3:0x133 / me=umh / subme=7 / psy=1 / psy_rd=1.00:0.00 / mixed_ref=1 / me_range=16 / chroma_me=1 / trellis=1 / 8x8dct=1 / cqm=0 / deadzone=21,11 / fast_pskip=1 / chroma_qp_offset=-2 / threads=6 / sliced_threads=0 / nr=0 / decimate=1 / interlaced=0 / constrained_intra=0 / bframes=8 / b_pyramid=0 / b_adapt=1 / b_bias=0 / direct=1 / weightb=1 / open_gop=0 / weightp=2 / keyint=240 / keyint_min=24 / scenecut=40 / intra_refresh=0 / rc_lookahead=40 / rc=2pass / mbtree=1 / bitrate=5165 / ratetol=1.0 / qcomp=0.60 / qpmin=0 / qpmax=69 / qpstep=4 / cplxblur=20.0 / qblur=0.5 / vbv_maxrate=25000 / vbv_bufsize=25000 / nal_hrd=vbr / ip_ratio=1.40 / aq=1:1.00
Язык                             : Russian
Аудио #1
Идентификатор                    : 2
Формат                           : AC-3
Формат/Информация                : Audio Coding 3
Профиль формата                  : Dolby Digital
Расширение режима                : CM (complete main)
Идентификатор кодека             : A_AC3
Продолжительность                : 1 ч. 37 м.
Вид битрейта                     : Постоянный
Битрейт                          : 192 Кбит/сек
Каналы                           : 2 канала
Расположение каналов             : Front: L R
Частота                          : 48,0 КГц
Битовая глубина                  : 16 бит
Метод сжатия                     : С потерями
Размер потока                    : 134 Мбайт (3%)
Заголовок                        : Профессиональный многоголосый
Язык                             : Russian
Аудио #2
Идентификатор                    : 3
Формат                           : AC-3
Формат/Информация                : Audio Coding 3
Расширение режима                : CM (complete main)
Идентификатор кодека             : A_AC3
Продолжительность                : 1 ч. 37 м.
Вид битрейта                     : Постоянный
Битрейт                          : 192 Кбит/сек
Каналы                           : 2 канала
Расположение каналов             : Front: L R
Частота                          : 48,0 КГц
Битовая глубина                  : 16 бит
Метод сжатия                     : С потерями
Размер потока                    : 134 Мбайт (3%)
Заголовок                        : Английский
Язык                             : English
Аудио #3
Идентификатор                    : 4
Формат                           : AC-3
Формат/Информация                : Audio Coding 3
Расширение режима                : CM (complete main)
Идентификатор кодека             : A_AC3
Продолжительность                : 1 ч. 37 м.
Вид битрейта                     : Постоянный
Битрейт                          : 192 Кбит/сек
Каналы                           : 2 канала
Расположение каналов             : Front: L R
Частота                          : 48,0 КГц
Битовая глубина                  : 16 бит
Метод сжатия                     : С потерями
Размер потока                    : 134 Мбайт (3%)
Заголовок                        : Немецкий
Язык                             : German
Текст #1
Идентификатор                    : 5
Формат                           : PGS
Режим смешивания                 : zlib
Идентификатор кодека             : S_HDMV/PGS
Идентификатор кодека/Информация  : The same subtitle format used on BDs/HD-DVDs
Заголовок                        : Русские
Язык                             : Russian
Текст #2
Идентификатор                    : 6
Формат                           : UTF-8
Идентификатор кодека             : S_TEXT/UTF8
Идентификатор кодека/Информация  : UTF-8 Plain Text
Заголовок                        : Английские
Язык                             : English
Меню
00:00:01.000                     : ru:Начало фильма
00:05:00.000                     : ru:Глава №-01
00:10:00.000                     : ru:Глава №-02
00:15:00.000                     : ru:Глава №-03
00:20:00.000                     : ru:Глава №-04
00:25:00.000                     : ru:Глава №-05
00:30:00.000                     : ru:Глава №-06
00:35:00.000                     : ru:Глава №-07
00:40:00.000                     : ru:Глава №-08
00:45:00.000                     : ru:Глава №-09
00:50:00.000                     : ru:Глава №-10
00:55:00.000                     : ru:Глава №-11
01:00:00.000                     : ru:Глава №-12
01:05:00.000                     : ru:Глава №-13
01:10:00.000                     : ru:Глава №-14
01:15:00.000                     : ru:Глава №-15
01:20:00.000                     : ru:Глава №-16
01:25:00.000                     : ru:Глава №-17
01:30:00.000                     : ru:Глава №-18
01:35:00.000                     : ru:Глава №-19 (Конец фильма)

4 серия

Качество: BDRip (720p)
Формат: MKV
Видео: AVC, ~ 5107 Кpbs, 960х720, 4:3, 24.000 кадра/с, 0.308 bit/pic
Аудио: Russian, AC3, 2 ch, 48,0 KHz, 192 Кbps
Аудио 2: English, AC3, 2 Ch, 48,0 KHz, 192 kbps
Аудио 3: Germany, AC3, 2 Ch, 48,0 KHz, 160 kbps
Субтитры: Russian, English (отключаемые)

скриншоты

MediaInfo

Общее
Уникальный идентификатор         : 200254884151400840218571204082100185670 (0x96A7B012FC535733BCD915DE87FDAA46)
Полное имя                       : D:\Torent files\Iisus.iz.Nazareta.1977.x264.BDRip.720p\Iisus.iz.Nazareta.4.(1977).x264.BDRip.720p.mkv
Формат                           : Matroska
Версия формата                   : Version 2
Размер файла                     : 3,90 Гбайт
Продолжительность                : 1 ч. 38 м.
Режим общего битрейта            : Переменный
Общий поток                      : 5665 Кбит/сек
Название фильма                  : Иисус из Назарета (1997) 4-я часть. (Jesus of Nazareth)
Дата кодирования                 : UTC 2012-07-27 17:58:28
Программа кодирования            : mkvmerge v5.6.0 ('Kenya Kane') built on May 27 2012 16:44:04
Библиотека кодирования           : libebml v1.2.3 + libmatroska v1.3.0
Обложка                          : Cover
Видео
Идентификатор                    : 1
Формат                           : AVC
Формат/Информация                : Advanced Video Codec
Профиль формата                  : High@L4.1
Параметр CABAC формата           : Да
Параметр ReFrames формата        : 6 кадров
Идентификатор кодека             : V_MPEG4/ISO/AVC
Продолжительность                : 1 ч. 38 м.
Вид битрейта                     : Переменный
Битрейт                          : 5107 Кбит/сек
Максимальный битрейт             : 25,0 Мбит/сек
Ширина                           : 960 пикселей
Высота                           : 720 пикселей
Соотношение сторон               : 4:3
Частота кадров                   : 24,000 кадра/сек
Цветовое пространство            : YUV
Субдискретизация насыщенности    : 4:2:0
Битовая глубина                  : 8 бит
Тип развёртки                    : Прогрессивная
Бит/(Пиксели*Кадры)              : 0.308
Размер потока                    : 3,45 Гбайт (88%)
Заголовок                        : Иисус из Назарета (1997) 4-я часть. (Jesus of Nazareth)
Библиотека кодирования           : x264 core 114 r1924 08d04a4
Настройки программы              : cabac=1 / ref=6 / deblock=1:0:0 / analyse=0x3:0x133 / me=umh / subme=7 / psy=1 / psy_rd=1.00:0.00 / mixed_ref=1 / me_range=16 / chroma_me=1 / trellis=1 / 8x8dct=1 / cqm=0 / deadzone=21,11 / fast_pskip=1 / chroma_qp_offset=-2 / threads=3 / sliced_threads=0 / nr=0 / decimate=1 / interlaced=0 / constrained_intra=0 / bframes=8 / b_pyramid=0 / b_adapt=1 / b_bias=0 / direct=1 / weightb=1 / open_gop=0 / weightp=2 / keyint=240 / keyint_min=24 / scenecut=40 / intra_refresh=0 / rc_lookahead=40 / rc=2pass / mbtree=1 / bitrate=5107 / ratetol=1.0 / qcomp=0.60 / qpmin=0 / qpmax=69 / qpstep=4 / cplxblur=20.0 / qblur=0.5 / vbv_maxrate=25000 / vbv_bufsize=25000 / nal_hrd=vbr / ip_ratio=1.40 / aq=1:1.00
Язык                             : Russian
Аудио #1
Идентификатор                    : 2
Формат                           : AC-3
Формат/Информация                : Audio Coding 3
Профиль формата                  : Dolby Digital
Расширение режима                : CM (complete main)
Идентификатор кодека             : A_AC3
Продолжительность                : 1 ч. 38 м.
Вид битрейта                     : Постоянный
Битрейт                          : 192 Кбит/сек
Каналы                           : 2 канала
Расположение каналов             : Front: L R
Частота                          : 48,0 КГц
Битовая глубина                  : 16 бит
Метод сжатия                     : С потерями
Размер потока                    : 135 Мбайт (3%)
Заголовок                        : Профессиональный многоголосый
Язык                             : Russian
Аудио #2
Идентификатор                    : 3
Формат                           : AC-3
Формат/Информация                : Audio Coding 3
Расширение режима                : CM (complete main)
Идентификатор кодека             : A_AC3
Продолжительность                : 1 ч. 38 м.
Вид битрейта                     : Постоянный
Битрейт                          : 192 Кбит/сек
Каналы                           : 2 канала
Расположение каналов             : Front: L R
Частота                          : 48,0 КГц
Битовая глубина                  : 16 бит
Метод сжатия                     : С потерями
Размер потока                    : 135 Мбайт (3%)
Заголовок                        : Английский
Язык                             : English
Аудио #3
Идентификатор                    : 4
Формат                           : AC-3
Формат/Информация                : Audio Coding 3
Расширение режима                : CM (complete main)
Идентификатор кодека             : A_AC3
Продолжительность                : 1 ч. 38 м.
Вид битрейта                     : Постоянный
Битрейт                          : 160 Кбит/сек
Каналы                           : 2 канала
Расположение каналов             : Front: L R
Частота                          : 44,1 КГц
Битовая глубина                  : 16 бит
Метод сжатия                     : С потерями
Размер потока                    : 113 Мбайт (3%)
Заголовок                        : Немецкий
Язык                             : German
Текст #1
Идентификатор                    : 5
Формат                           : PGS
Режим смешивания                 : zlib
Идентификатор кодека             : S_HDMV/PGS
Идентификатор кодека/Информация  : The same subtitle format used on BDs/HD-DVDs
Заголовок                        : Русские
Язык                             : Russian
Текст #2
Идентификатор                    : 6
Формат                           : UTF-8
Идентификатор кодека             : S_TEXT/UTF8
Идентификатор кодека/Информация  : UTF-8 Plain Text
Заголовок                        : Английские
Язык                             : English
Меню
00:00:01.000                     : ru:Начало фильма
00:05:00.000                     : ru:Глава №-01
00:10:00.000                     : ru:Глава №-02
00:15:00.000                     : ru:Глава №-03
00:20:00.000                     : ru:Глава №-04
00:25:00.000                     : ru:Глава №-05
00:30:00.000                     : ru:Глава №-06
00:35:00.000                     : ru:Глава №-07
00:40:00.000                     : ru:Глава №-08
00:45:00.000                     : ru:Глава №-09
00:50:00.000                     : ru:Глава №-10
00:55:00.000                     : ru:Глава №-11
01:00:00.000                     : ru:Глава №-12
01:05:00.000                     : ru:Глава №-13
01:10:00.000                     : ru:Глава №-14
01:15:00.000                     : ru:Глава №-15
01:20:00.000                     : ru:Глава №-16
01:25:00.000                     : ru:Глава №-17
01:30:00.000                     : ru:Глава №-18
01:35:00.000                     : ru:Глава №-19 (Конец фильма)
[Профиль] [ЛС]
Показать сообщения:    

Текущее время: Сегодня 08:58

Часовой пояс: GMT



Вы не можете начинать темы
Вы не можете отвечать на сообщения
Вы не можете редактировать свои сообщения
Вы не можете удалять свои сообщения
Вы не можете голосовать в опросах
Вы не можете прикреплять файлы к сообщениям
Вы не можете скачивать файлы