Из чего это сделано? / Как это сделано? / How Do They Do It? Сезоны 7-8 [2010-2011, научно-популярный, HDTV 1080i]

 
Автор Сообщение

TorrentFilm ®

Пол:

Стаж: 2 года

Сообщений: 7741



Награды: Нет

Торрент-статистика

Создавать темы 05-Янв-2015 00:00

[Цитировать]

Из чего это сделано? / Как это сделано? / How Do They Do It? Сезоны 7-8
Год выпуска: 2010-2011
Студия: WAG TV
Жанр: научно-популярный
Продолжительность: ~ 22 минуты на серию (40 серий)
Перевод: Профессиональный (одноголосый закадровый)
Описание: За обычными предметами, окружающими нас в жизни, стоит что-то необычное. Невероятные истории о блестящих решениях проблем, о существовании которых многие из нас даже не знали. Так какие же тайны скрываются за повседневными вещами, которые мы воспринимаем как само собой разумеющееся?

Список серий

7 сезон (2010)
S07E01 (Подземный мир (Свинец); Оружейники)
S07E02 (Экскаваторы; Восточный вкус (соевый соус); Пустота)
S07E03 (Арахисовое масло; Точка разрыва (тестирование бытовой аппаратуры))
S07E04 (Гладкий как мрамор; Острый соус; Зонтики)
S07E05 (Сказания черного эля; Шелк; Суп в банке)
S07E06 (Огнетушители; Круизные суда)
S07E07 (Самолетные колеса; Револьверы; Искусственный газон)
S07E08 (Мягкий; как губка; Знание)
S07E09 (Инкассаторы; Улов века; Удивительная грация (волынка))
S07E10 (Крэш-тестирование; Книги; Маргарин)
S07E11 (Море виски; Штормовое предупреждение)
S07E12 (Сахар; Разведение рыб; Гоночные костюмы)
S07E13 (Деньги; Обувь)
S07E14 (Аккумуляторы; Шоколад; Зубные щетки)
S07E15 (Эйфелева башня; Сноуборд)
S07E16 (Кофе без кофеина; Копчености; Водометный двигатель)
S07E17 (Пожарные-следователи; Дела дубовые (бочки))
S07E18 (Суперкосилки; Торговые точки; Вода)
S07E19 (Спички; Хром)
S07E20 (Внедорожник; Седла для ДикогоЗапада; Мука и пироги)
8 сезон (2011)
S08E01 (Фугу; Грузовые поезда; Шотландский тартан)
S08E02 (Шары для боулинга; Тауэрский мост; Мармеладные мишки)
S08E03 (Остров-тюрьма; Почтовые ящики; Джем)
S08E04 (Пивоварение; Игральные карты; Частные реактивные самолеты)
S08E05 (Швейцарский сыр; Танки; Британская библиотека)
S08E06 (Жемчуг; Крендели; Гондолы)
S08E07 (Колесо рулетки; Оливковое масло; Бэтмобиль)
S08E08 (Ледовый каток; Автомобильный завод)
S08E09 (Аккордеон; Васаби; Манки)
S08E10 (Унитазы; Беспилотные вертолеты; Отбойные молотки)
S08E11 (Ралли 24 часа Дайтоны; Карибский ром)
S08E12 (Черная икра; Японский фарфор; Футбольные бутсы)
S08E13 (Саперы; Сидр; Газонокосилка)
S08E14 (Передвижной цирк; Электрогитары)
S08E15 (Японский барабан Тайко; Экологичный автомобильный завод; Макароны)
S08E16 (Франкфуртские сосиски; Снайперские винтовки; Выслеживание мошенников в казино)
S08E17 (Посылки (UPS); Рыбный рынок Цукидзи; Биты для крикета)
S08E18 (Скоростные катера; Швейцарские часы; Обои)
S08E19 (Подводные спасатели)
S08E20 (Круизный лайнер; Трюфели; Асфальт)
Сэмпл: http://multi-up.com/1013927
04.01.2015 добавлен 8-й сезон
Тип релиза: HDTV 1080i
Контейнер: TS
Видео: MPEG4 Video (H264) 1920x1080 25fps ~6500 Kbps
Аудио 1: Russian MPEG Audio 48000Hz stereo 192kbps [A: mp2, 48000 Hz, stereo, 192 kb/s] (только Discovery Channel)
Аудио 2: Russian Dolby AC3 48000Hz 6ch 384kbps [A: ac3, 48000 Hz, 5.1, 384 kb/s] (Discovery Science/Discovery Channel)
Аудио 3: English Dolby AC3 48000Hz 6ch 384kbps [A: ac3, 48000 Hz, 5.1, 384 kb/s] (Discovery Science/Discovery Channel)

MediaInfo 7 сезон

GeneralID : 6 (0x6)Complete name : G:\0\How do they do it (HD)\S07E01 (Подземный мир (Свинец); Оружейники).tsFormat : MPEG-TSFile size : 1.23 GiBDuration : 22mn 15sOverall bit rate mode : VariableOverall bit rate : 7 887 Kbps
VideoID : 3200 (0xC80)Menu ID : 3203 (0xC83)Format : AVCFormat/Info : Advanced Video CodecFormat profile : High@L4.0Format settings, CABAC : YesFormat settings, ReFrames : 4 framesCodec ID : 27Duration : 22mn 15sBit rate : 6 721 KbpsWidth : 1 920 pixelsHeight : 1 080 pixelsDisplay aspect ratio : 16:9Frame rate : 25.000 fpsStandard : ComponentColor space : YUVChroma subsampling : 4:2:0Bit depth : 8 bitsScan type : MBAFFBits/(Pixel*Frame) : 0.130Stream size : 1.04 GiB (85%)Color primaries : BT.709Transfer characteristics : BT.709Matrix coefficients : BT.709
Audio #1ID : 3202 (0xC82)Menu ID : 3203 (0xC83)Format : AC-3Format/Info : Audio Coding 3Mode extension : CM (complete main)Format settings, Endianness : BigCodec ID : 6Duration : 22mn 15sBit rate mode : ConstantBit rate : 384 KbpsChannel(s) : 6 channelsChannel positions : Front: L C R, Side: L R, LFESampling rate : 48.0 KHzBit depth : 16 bitsCompression mode : LossyDelay relative to video : -27msStream size : 61.1 MiB (5%)
Audio #2ID : 3203 (0xC83)Menu ID : 3203 (0xC83)Format : AC-3Format/Info : Audio Coding 3Mode extension : CM (complete main)Format settings, Endianness : BigCodec ID : 6Duration : 22mn 15sBit rate mode : ConstantBit rate : 384 KbpsChannel(s) : 6 channelsChannel positions : Front: L C R, Side: L R, LFESampling rate : 48.0 KHzBit depth : 16 bitsCompression mode : LossyDelay relative to video : -27msStream size : 61.1 MiB (5%)

MediaInfo 8 сезон

GeneralID : 69 (0x45)Complete name : D:\0\How do they do it (HD)\S08E01 (Фугу; Грузовые поезда; Шотландский тартан).tsFormat : MPEG-TSFile size : 1.19 GiBDuration : 21mn 58sOverall bit rate mode : VariableOverall bit rate : 7 766 Kbps
VideoID : 1018 (0x3FA)Menu ID : 118 (0x76)Format : AVCFormat/Info : Advanced Video CodecFormat profile : High@L4.0Format settings, CABAC : YesFormat settings, ReFrames : 4 framesCodec ID : 27Duration : 21mn 57sBit rate : 6 412 KbpsWidth : 1 920 pixelsHeight : 1 080 pixelsDisplay aspect ratio : 16:9Frame rate : 25.000 fpsStandard : ComponentColor space : YUVChroma subsampling : 4:2:0Bit depth : 8 bitsScan type : InterlacedBits/(Pixel*Frame) : 0.124Stream size : 1 007 MiB (82%)Color primaries : BT.709Transfer characteristics : BT.709Matrix coefficients : BT.709
Audio #1ID : 1019 (0x3FB)Menu ID : 118 (0x76)Format : MPEG AudioFormat version : Version 1Format profile : Layer 2Codec ID : 4Duration : 21mn 58sBit rate mode : ConstantBit rate : 192 KbpsChannel(s) : 2 channelsSampling rate : 48.0 KHzCompression mode : LossyDelay relative to video : -12msStream size : 30.2 MiB (2%)
Audio #2ID : 1020 (0x3FC)Menu ID : 118 (0x76)Format : AC-3Format/Info : Audio Coding 3Mode extension : CM (complete main)Format settings, Endianness : BigCodec ID : 6Duration : 21mn 58sBit rate mode : ConstantBit rate : 384 KbpsChannel(s) : 6 channelsChannel positions : Front: L C R, Side: L R, LFESampling rate : 48.0 KHzBit depth : 16 bitsCompression mode : LossyDelay relative to video : -43msStream size : 60.4 MiB (5%)
Audio #3ID : 1021 (0x3FD)Menu ID : 118 (0x76)Format : AC-3Format/Info : Audio Coding 3Mode extension : CM (complete main)Format settings, Endianness : BigCodec ID : 6Duration : 21mn 58sBit rate mode : ConstantBit rate : 384 KbpsChannel(s) : 6 channelsChannel positions : Front: L C R, Side: L R, LFESampling rate : 48.0 KHzBit depth : 16 bitsCompression mode : LossyDelay relative to video : -64msStream size : 60.4 MiB (5%)

Скриншоты



Релиз группы:
[Профиль] [ЛС]
Кто просматривает тему:

Показать сообщения:    

Текущее время: Сегодня 16:56

Часовой пояс: GMT



Вы не можете начинать темы
Вы не можете отвечать на сообщения
Вы не можете редактировать свои сообщения
Вы не можете удалять свои сообщения
Вы не можете голосовать в опросах
Вы не можете прикреплять файлы к сообщениям
Вы не можете скачивать файлы