Из тьмы / The Hallow (2015) BDRemux 1080p | iTunes

 
Автор Сообщение

BOSS ®

Пол:

Стаж: 2 года 1 месяц

Сообщений: 3744

Откуда: ODESSA



Награды: 20 (Подробнее)

Top Releaser 4 (Количество: 1) Top Keeper 1 (Количество: 1) Mega Seeder 5 (Количество: 1)
Торрент-статистика

Создавать темы 24-Май-2016 04:38

[Цитировать]

Информация о фильме
Название: Из тьмы
Оригинальное название: The Hallow
Год выхода: 2015
Жанр: Ужасы
Режиссер: Корин Харди
В ролях: Джозеф Моул, Бояна Новакович, Майкл МакЭлхаттон, Гари Лайдон, Стюарт Грэхэм, Конор Крэйг Стефенс, Шон Тайрел, Билли Трэйнор
О фильме:
Тёмные божества, изгнанные людьми, стали лесными духами, затаились в чаще ирландских лесов, но не забыли древний договор. Молодая семья, приехавшая из Лондона, опрометчиво переступает границу запретной чащи, выпуская на волю первобытную тьму. Что захотят злые духи леса в качестве платы за вторжение? Одна ночь, чтобы спасти ребёнка, одна ночь, чтобы огнём и железом вырвать себе право на жизнь..

Страна: Великобритания
Студия: Altitude Film Entertainment, Electric Shadow Company, Fantastic Films Ltd
Продолжительность: 01:37:00
Перевод: Дублированный | iTunes
Файл
Кодек: MPEG-4
Качество: BDRemux 1080p
Видео: 1920x1080, 29.7 Mbit/s, 23.976 fps
Звук:
Аудио #01: 48 kHz, AC3, 5.1, 384 Kbps | Дублированный, iTunes |AC3
Аудио #02: 48 kHz, DTS-HD MA, 5.1, 2779 kbps | Оригинал |DTS-HD MA
Субтитры: Русские, английские

MI

General
Unique ID : 241015163132243377711580274478694617997 (0xB551D4FC2AF8F8298FF116AF522D538D)
Complete name : F:VideoThe.Hallow.2015.BDREMUX.1080p.ExKinoRay.mkv
Format : Matroska
Format version : Version 4 / Version 2
File size : 22.3 GiB
Duration : 1h 37mn
Overall bit rate mode : Variable
Overall bit rate : 32.9 Mbps
Movie name : The.Hallow.2015.BDREMUX.1080p.ExKinoRay
Encoded date : UTC 2016-05-24 00:58:52
Writing application : mkvmerge v8.3.0 ('Over the Horizon') 64bit
Writing library : libebml v1.3.1 + libmatroska v1.4.2
Video
ID : 1
Format : AVC
Format/Info : Advanced Video Codec
Format profile : High@L4.1
Format settings, CABAC : Yes
Format settings, ReFrames : 4 frames
Codec ID : V_MPEG4/ISO/AVC
Duration : 1h 36mn
Bit rate mode : Variable
Bit rate : 29.7 Mbps
Maximum bit rate : 35.0 Mbps
Width : 1 920 pixels
Height : 1 080 pixels
Display aspect ratio : 16:9
Frame rate mode : Constant
Frame rate : 23.976 (24000/1001) fps
Color space : YUV
Chroma subsampling : 4:2:0
Bit depth : 8 bits
Scan type : Progressive
Bits/(Pixel*Frame) : 0.598
Stream size : 20.1 GiB (90%)
Title : The.Hallow.2015.BDREMUX.1080p.ExKinoRay.***селезень***
Language : English
Default : Yes
Forced : No
Audio #1
ID : 2
Format : AC-3
Format/Info : Audio Coding 3
Mode extension : CM (complete main)
Format settings, Endianness : Big
Codec ID : A_AC3
Duration : 1h 36mn
Bit rate mode : Constant
Bit rate : 384 Kbps
Channel(s) : 6 channels
Channel positions : Front: L C R, Side: L R, LFE
Sampling rate : 48.0 KHz
Frame rate : 31.250 fps (1536 spf)
Compression mode : Lossy
Stream size : 266 MiB (1%)
Title : DUB [iTunes]
Language : Russian
Default : Yes
Forced : No
Audio #2
ID : 3
Format : DTS
Format/Info : Digital Theater Systems
Format profile : MA / Core
Mode : 16
Format settings, Endianness : Big
Codec ID : A_DTS
Duration : 1h 37mn
Bit rate mode : Variable / Constant
Bit rate : 2 779 Kbps / 1 509 Kbps
Channel(s) : 6 channels
Channel positions : Front: L C R, Side: L R, LFE
Sampling rate : 48.0 KHz
Frame rate : 93.750 fps (512 spf)
Bit depth : 24 bits
Compression mode : Lossless / Lossy
Stream size : 1.88 GiB (8%)
Title : Original
Language : English
Default : No
Forced : No
Text #1
ID : 4
Format : UTF-8
Codec ID : S_TEXT/UTF8
Codec ID/Info : UTF-8 Plain Text
Duration : 1h 31mn
Bit rate : 29 bps
Count of elements : 542
Stream size : 20.0 KiB (0%)
Language : Russian
Default : No
Forced : No
Text #2
ID : 5
Format : UTF-8
Codec ID : S_TEXT/UTF8
Codec ID/Info : UTF-8 Plain Text
Duration : 1h 26mn
Bit rate : 17 bps
Count of elements : 449
Stream size : 10.8 KiB (0%)
Language : English
Default : No
Forced : No
Menu
00:00:00.000 : en:00:00:00.000
00:07:50.053 : en:00:07:50.053
00:13:21.718 : en:00:13:21.718
00:20:57.089 : en:00:20:57.089
00:28:10.480 : en:00:28:10.480
00:35:01.850 : en:00:35:01.850
00:43:04.499 : en:00:43:04.499
00:49:24.503 : en:00:49:24.503
00:58:14.116 : en:00:58:14.116
01:06:17.849 : en:01:06:17.849
01:13:00.751 : en:01:13:00.751
01:20:04.758 : en:01:20:04.758
01:36:57.895 : en:01:36:57.895

Скриншоты

[Профиль] [ЛС]
Кто просматривает тему:

Показать сообщения:    

Текущее время: Сегодня 13:44

Часовой пояс: GMT



Вы не можете начинать темы
Вы не можете отвечать на сообщения
Вы не можете редактировать свои сообщения
Вы не можете удалять свои сообщения
Вы не можете голосовать в опросах
Вы не можете прикреплять файлы к сообщениям
Вы не можете скачивать файлы