Из тьмы / The Hallow (2015) BDRip 1080p | iTunes

 
Автор Сообщение

достали все ®

Пол:

Стаж: 1 год 8 месяцев

Сообщений: 6565



Награды: 12 (Подробнее)

Top Releaser 2 (Количество: 1) Top Releaser 4 (Количество: 1) Mega Seeder 2 (Количество: 1)
Торрент-статистика

Создавать темы 24-Май-2016 02:36

[Цитировать]

Информация о фильме
Название: Из тьмы
Оригинальное название: The Hallow
Год выхода: 2015
Жанр: ужасы
Режиссер: Корин Харди
В ролях: Джозеф Моул, Бояна Новакович, Майкл МакЭлхаттон, Майкл Смайли, Гари Лайдон, Стюарт Грэхэм, Конор Крэйг Стефенс, Joss Wyre, Шон Тайрел, James Meryk
О фильме:
Глубоко во тьме уединенных лесов сельской Ирландии обитает древнее зло. Суеверные местные жители боятся проклятых существ, ведущих охоту на заблудших, поэтому эти места хранятся в строжайшем секрете от цивилизации. Но когда защитник природных ресурсов вместе со своей женой и маленьким ребенком приезжает из Лондона, чтобы рассмотреть земли для будущего строительства, то его действия невольно тревожат орду демонических сил…

Страна: Великобритания, США, Ирландия
Студия: Altitude Film Entertainment, Bord Scannan na hEireann / Irish Film Board, Electric Shadow Company, The, Hyperion Media Group, Occupant Films
Продолжительность: 01:36:42
Перевод: Дублированный
Файл
Кодек: MPEG4 Video (H264)
Качество: BDRip 1080p | iTunes
Видео: 1920x804, 11908 Kbps, 24.000fps
Звук: Russian: AC3, 384 kb/s (6 ch) / English: AC3, 640 kb/s (6 ch)
Субтитры: английские

Mediainfo

Общее
Уникальный идентификатор : 179394142873718571106670212607703938159 (0x86F60E1F04F3E45F8989B13BEA76746F)
Полное имя : C:TempThe Hallow.2015.BDRip.1080p.mkv
Формат : Matroska
Версия формата : Version 2
Размер файла : 8,73 Гбайт
Продолжительность : 1 ч. 36 м.
Общий поток : 12,9 Мбит/сек
Название фильма : Waterice@MTeam
Дата кодирования : UTC 2016-05-23 20:25:09
Программа кодирования : mkvmerge v4.0.0 ('The Stars were mine') сборка от Jun 6 2010 16:18:42
Библиотека кодирования : libebml v1.0.0 + libmatroska v1.0.0
Видео
Идентификатор : 1
Формат : AVC
Формат/Информация : Advanced Video Codec
Профиль формата : High@L4.1
Параметр CABAC формата : Да
Параметр ReFrames формата : 5 кадров
Идентификатор кодека : V_MPEG4/ISO/AVC
Продолжительность : 1 ч. 36 м.
Битрейт : 11,9 Мбит/сек
Ширина : 1920 пикселей
Высота : 804 пикселя
Соотношение сторон : 2,40:1
Режим частоты кадров : Постоянный
Частота кадров : 24,000 кадра/сек
Цветовое пространство : YUV
Субдискретизация насыщенности : 4:2:0
Битовая глубина : 8 бит
Тип развёртки : Прогрессивная
Бит/(Пиксели*Кадры) : 0.321
Размер потока : 7,86 Гбайт (90%)
Заголовок : Waterice@MTeam
Библиотека кодирования : x264 core 148 r2638 7599210
Настройки программы : cabac=1 / ref=5 / deblock=1:0:0 / analyse=0x3:0x113 / me=umh / subme=10 / psy=1 / psy_rd=1.05:0.10 / mixed_ref=1 / me_range=48 / chroma_me=1 / trellis=2 / 8x8dct=1 / cqm=0 / deadzone=21,11 / fast_pskip=0 / chroma_qp_offset=-2 / threads=6 / lookahead_threads=1 / sliced_threads=0 / nr=0 / decimate=1 / interlaced=0 / bluray_compat=0 / constrained_intra=0 / bframes=6 / b_pyramid=2 / b_adapt=2 / b_bias=0 / direct=3 / weightb=1 / open_gop=0 / weightp=2 / keyint=250 / keyint_min=24 / scenecut=40 / intra_refresh=0 / rc=2pass / mbtree=0 / bitrate=11908 / ratetol=2.0 / qcomp=0.70 / qpmin=0 / qpmax=69 / qpstep=4 / cplxblur=20.0 / qblur=0.5 / ip_ratio=1.40 / pb_ratio=1.30 / aq=2:1.00
Язык : English
Default : Нет
Forced : Нет
Аудио #1
Идентификатор : 2
Формат : AC-3
Формат/Информация : Audio Coding 3
Расширение режима : CM (complete main)
Параметр Endianness формата : Big
Идентификатор кодека : A_AC3
Продолжительность : 1 ч. 36 м.
Вид битрейта : Постоянный
Битрейт : 384 Кбит/сек
Каналы : 6 каналов
Расположение каналов : Front: L C R, Side: L R, LFE
Частота : 48,0 КГц
Частота кадров : 31,250 кадров/сек (1536 spf)
Метод сжатия : С потерями
Размер потока : 266 Мбайт (3%)
Заголовок : DUB iTunes
Язык : Russian
Default : Да
Forced : Да
Аудио #2
Идентификатор : 3
Формат : AC-3
Формат/Информация : Audio Coding 3
Расширение режима : CM (complete main)
Параметр Endianness формата : Big
Идентификатор кодека : A_AC3
Продолжительность : 1 ч. 36 м.
Вид битрейта : Постоянный
Битрейт : 640 Кбит/сек
Каналы : 6 каналов
Расположение каналов : Front: L C R, Side: L R, LFE
Частота : 48,0 КГц
Частота кадров : 31,250 кадров/сек (1536 spf)
Метод сжатия : С потерями
Размер потока : 444 Мбайт (5%)
Язык : English
Default : Нет
Forced : Нет
Текст
Идентификатор : 4
Формат : UTF-8
Идентификатор кодека : S_TEXT/UTF8
Идентификатор кодека/Информация : UTF-8 Plain Text
Язык : English
Default : Нет
Forced : Нет
Меню
00:00:00.000 : en:
00:10:24.000 : en:
00:15:58.000 : en:
00:22:51.500 : en:
00:29:27.083 : en:
00:40:50.208 : en:
00:48:00.041 : en:
00:58:06.708 : en:
01:09:30.125 : en:
01:17:07.083 : en:
01:25:31.833 : en:
01:29:33.708 : en:

Скриншоты

[Профиль] [ЛС]
Кто просматривает тему:

Показать сообщения:    

Текущее время: Сегодня 20:10

Часовой пояс: GMT



Вы не можете начинать темы
Вы не можете отвечать на сообщения
Вы не можете редактировать свои сообщения
Вы не можете удалять свои сообщения
Вы не можете голосовать в опросах
Вы не можете прикреплять файлы к сообщениям
Вы не можете скачивать файлы