Из пекла / Out of the Furnace (2013) BDRip 720p | А

 
Автор Сообщение

sergej644 ®

Пол:

Стаж: 4 года 11 месяцев

Сообщений: 6046

Откуда: Soviet Union



Награды: Нет

Торрент-статистика

Создавать темы 31-Янв-2015 22:48

[Цитировать]

Из пекла / Out of the Furnace Год выпуска: 2013
Страна: США, Великобритания
Производство: Appian Way, Energy Entertainment, Red Granite Pictures
Слоган: «Sometimes your battles choose you»
Жанр: триллер, драма, криминал
Продолжительность: 01:56:08
Перевод:
Авторский (Сергей Визгунов)
Авторский (Юрий Немахов) [присутствует ненормативная лексика]
Субтитры: Russian, Ukrainian, English (Full, SDH)-Режиссер: Скотт Купер / Scott Cooper
Сценарий: Брэд Ингелсби / Brad Ingelsby, Скотт Купер / Scott Cooper
Продюсер: Майкл Костиган / Michael Costigan, Леонардо ДиКаприо / Leonardo DiCaprio, Райан Кэвэна / Ryan Kavanaugh, Дженнифер Дэвиссон / Jennifer Davisson, Ридли Скотт / Ridley Scott
Оператор: Масанобу Такаянаги / Masanobu Takayanagi
Композитор: Дикон Хинчклифф / Dickon Hinchcliffe-В ролях: Кристиан Бэйл (Russell Baze), Вуди Харрельсон (Harlan DeGroat), Кейси Аффлек (Rodney Baze Jr.), Форест Уитакер (Chief Wesley Barnes), Уиллем Дефо (John Petty), Зои Салдана (Lena Taylor), Сэм Шепард (Gerald «Red» Baze), Дендри Тейлор (DeGroat's Date), Карл Киарфалио (Man at Drive In), Бинго О’Мэлли (Rodney Baze Sr.), Том Бауэр (Dan Dugan)-Бюджет: $22 000 000
Сборы в США: $11 330 849
Сборы в мире: $14 130 849
Мировая премьера: 9 ноября 2013-Описание: Когда Родни Бэйз таинственно исчезает, а правоохранительные органы при этом действуют недостаточно быстро, его старший брат Рассел берет дело в свои руки, чтобы добиться справедливости.-Рейтинг:

MPAA: R - Лицам до 17 лет обязательно присутствие взрослого-Формат: Matroska
Источник: Out of the Furnace 2013 1080p Blu-ray AVC DTS-HD MA 5.1-EbP
Видео: 1280x534 at 23.976 fps, x264@L4.1, ~10300 kbps avg
Аудио#1: Russian: 48 kHz, AC3, 3/2 (L,C,R,l,r) + LFE ch, ~640 kbps avg |Авторский, С. Визгунов|
Аудио#2: Russian: 48 kHz, AC3, 3/2 (L,C,R,l,r) + LFE ch, ~640 kbps avg |Авторский, Ю. Немахов|
Аудио#3: English: 48 kHz, AC3, 3/2 (L,C,R,l,r) + LFE ch, ~640 kbps avg-

Знаете ли Вы, что...

На ранней стадии Леонардо ДиКаприо рассматривался на главную роль, а место режиссера предлагали Ридли Скотту. В итоге оба остались в проекте, но только в качестве продюсеров.
Международный благотворительный фонд, помогающий исполнять желания смертельно больным детям (Make-A-Wish Foundation), осуществил мечту больного мальчика. Он и его семья смогли лично познакомиться с Кристианом Бэйлом, а также провести целый день на съемочной площадке фильма.
Фильм, который показывают в кинотеатре на открытом воздухе, - это «Полуночный экспресс» (2008).
На пост режиссера претендовал Руперт Сандерс.
Чэннинг Татум, Тейлор Китч, Макс Айронс и Гаррет Хедлунд пробовались на роль брата главного героя. Но в итоге выбрали Кейси Аффлека.
Кристиан Бэйл на самом деле научился работать с печью для своей роли и не пользовался дублером в сценах на металлургическом предприятии.
Скотт Купер переписал сценарий и персонажа Рассела специально под Кристиана Бэйла, хотя на тот момент он еще даже не встречался с актером и не знал, согласится ли тот на роль или нет.
В 2011 году Скотт Купер пообещал Кристиану Бэйлу, что съемки этого фильма не начнутся без него. В итоге из-за плотного рабочего графика Бэйла съемки начались только в апреле 2012 года.
Первоначально Вигго Мортенсен и Билли Боб Торнтон рассматривались на роль, которая досталась Вуди Харрельсону.
В начале фильма по телевизору в баре показывают политиков, разговаривающих о президентских выборах 2008 года. Позже на талонах техосмотра Рассела можно заметить дату 9/13 и 12/13, что означает, что он просидел в тюрьме 5 лет.
Оригинальный сценарий носил название The Low Dweller («Простой житель»), но, когда Скотт Купер переписал его, он решил сменить название на Under a Black Sun («Под черным солнцем»). Рабочим названием во время съемок было Dust to Dust («Прах к праху»). В конце концов Терренс Малик и Сэм Шепард убедили Купера, что самым подходящим названием для фильма является Out of the Furnace («Из пекла»).
На роль композитора фильма рассматривался Альберто Иглесиас, но в итоге его место досталось Дикону Хинчклиффу.

MI

General
Unique ID : 249896064038074793693521602408409213157 (0xBC003B349CA556A19F8912BE348C28E5)
Complete name : Out.of.the.Furnace.2013.720p.BluRay.2xRus.Eng.HDCLUB.mkv
Format : Matroska
Format version : Version 4 / Version 2
File size : 9.91 GiB
Duration : 1h 56mn
Overall bit rate : 12.2 Mbps
Encoded date : UTC 2014-08-02 16:08:56
Writing application : mkvmerge v6.9.1 ('Blue Panther') 64bit built on Apr 18 2014 18:23:38
Writing library : libebml v1.3.0 + libmatroska v1.4.1
Video
ID : 1
Format : AVC
Format/Info : Advanced Video Codec
Format profile : High@L4.1
Format settings, CABAC : Yes
Format settings, ReFrames : 12 frames
Codec ID : V_MPEG4/ISO/AVC
Duration : 1h 56mn
Bit rate : 10.3 Mbps
Width : 1 280 pixels
Height : 534 pixels
Display aspect ratio : 2.40:1
Frame rate mode : Constant
Frame rate : 23.976 fps
Color space : YUV
Chroma subsampling : 4:2:0
Bit depth : 8 bits
Scan type : Progressive
Bits/(Pixel*Frame) : 0.629
Stream size : 8.15 GiB (82%)
Writing library : x264 core 140 r2377+40 929f149 tMod [8-bit@all X86_64]
Encoding settings : cabac=1 / ref=12 / deblock=1:-3:-3 / analyse=0x3:0x133 / me=tesa / subme=11 / psy=1 / fade_compensate=0.00 / psy_rd=1.07:0.00 / mixed_ref=1 / me_range=32 / chroma_me=1 / trellis=2 / 8x8dct=1 / cqm=0 / deadzone=21,11 / fast_pskip=0 / chroma_qp_offset=-2 / threads=12 / lookahead_threads=2 / sliced_threads=0 / nr=0 / decimate=0 / interlaced=0 / bluray_compat=0 / constrained_intra=0 / fgo=0 / bframes=9 / b_pyramid=2 / b_adapt=2 / b_bias=0 / direct=3 / weightb=1 / open_gop=0 / weightp=2 / keyint=250 / keyint_min=23 / scenecut=40 / intra_refresh=0 / rc=2pass / mbtree=0 / bitrate=10300 / ratetol=1.0 / qcomp=0.70 / qpmin=0:0:0 / qpmax=69:69:69 / qpstep=4 / cplxblur=20.0 / qblur=0.5 / ip_ratio=1.10 / pb_ratio=1.10 / aq=3:0.75 / aq-sensitivity=10.00 / aq-factor=1.00:1.00:1.00 / aq2=0 / aq3=0
Default : No
Forced : No
Matrix coefficients : BT.709
Audio #1
ID : 2
Format : AC-3
Format/Info : Audio Coding 3
Mode extension : CM (complete main)
Format settings, Endianness : Big
Codec ID : A_AC3
Duration : 1h 56mn
Bit rate mode : Constant
Bit rate : 640 Kbps
Channel(s) : 6 channels
Channel positions : Front: L C R, Side: L R, LFE
Sampling rate : 48.0 KHz
Bit depth : 16 bits
Compression mode : Lossy
Stream size : 532 MiB (5%)
Title : AVO, Vizgunov
Language : Russian
Default : Yes
Forced : No
Audio #2
ID : 3
Format : AC-3
Format/Info : Audio Coding 3
Mode extension : CM (complete main)
Format settings, Endianness : Big
Codec ID : A_AC3
Duration : 1h 56mn
Bit rate mode : Constant
Bit rate : 640 Kbps
Channel(s) : 6 channels
Channel positions : Front: L C R, Side: L R, LFE
Sampling rate : 48.0 KHz
Bit depth : 16 bits
Compression mode : Lossy
Stream size : 532 MiB (5%)
Title : AVO, Nemahov
Language : Russian
Default : No
Forced : No
Audio #3
ID : 4
Format : AC-3
Format/Info : Audio Coding 3
Mode extension : CM (complete main)
Format settings, Endianness : Big
Codec ID : A_AC3
Duration : 1h 56mn
Bit rate mode : Constant
Bit rate : 640 Kbps
Channel(s) : 6 channels
Channel positions : Front: L C R, Side: L R, LFE
Sampling rate : 48.0 KHz
Bit depth : 16 bits
Compression mode : Lossy
Stream size : 532 MiB (5%)
Language : English
Default : No
Forced : No
Text #1
ID : 5
Format : UTF-8
Codec ID : S_TEXT/UTF8
Codec ID/Info : UTF-8 Plain Text
Language : Russian
Default : No
Forced : No
Text #2
ID : 6
Format : UTF-8
Codec ID : S_TEXT/UTF8
Codec ID/Info : UTF-8 Plain Text
Language : Ukrainian
Default : No
Forced : No
Text #3
ID : 7
Format : UTF-8
Codec ID : S_TEXT/UTF8
Codec ID/Info : UTF-8 Plain Text
Language : English
Default : No
Forced : No
Text #4
ID : 8
Format : UTF-8
Codec ID : S_TEXT/UTF8
Codec ID/Info : UTF-8 Plain Text
Title : SDH
Language : English
Default : No
Forced : No
Menu
00:00:00.000 : en:00:00:00.000
00:04:54.669 : en:00:04:54.669
00:09:02.709 : en:00:09:02.709
00:12:11.105 : en:00:12:11.105
00:15:39.856 : en:00:15:39.856
00:17:55.074 : en:00:17:55.074
00:21:13.397 : en:00:21:13.397
00:23:40.961 : en:00:23:40.961
00:28:09.646 : en:00:28:09.646
00:33:17.162 : en:00:33:17.162
00:39:15.353 : en:00:39:15.353
00:45:26.223 : en:00:45:26.223
00:53:10.020 : en:00:53:10.020
01:01:09.666 : en:01:01:09.666
01:05:31.886 : en:01:05:31.886
01:10:08.579 : en:01:10:08.579
01:12:25.383 : en:01:12:25.383
01:21:45.192 : en:01:21:45.192
01:27:18.024 : en:01:27:18.024
01:30:31.593 : en:01:30:31.593
01:34:18.736 : en:01:34:18.736
01:37:58.039 : en:01:37:58.039
01:42:51.916 : en:01:42:51.916
01:47:49.296 : en:01:47:49.296

Скриншоты

-
[Профиль] [ЛС]
Кто просматривает тему:

Показать сообщения:    

Текущее время: Сегодня 18:48

Часовой пояс: GMT



Вы не можете начинать темы
Вы не можете отвечать на сообщения
Вы не можете редактировать свои сообщения
Вы не можете удалять свои сообщения
Вы не можете голосовать в опросах
Вы не можете прикреплять файлы к сообщениям
Вы не можете скачивать файлы