Из ниоткуда / Out of Blue (2018) WEB-DLRip | HDRezka Studio

 
Author Message

BOSS ®

Gender:

Longevity: 4 years 8 months

Posts: 14112

Location: ODESSA



: 22 ()

Mega Seeder 3 (1) Top Seeder 2 (1) Mega Releaser 2 (1)
Торрент-статистика

Post 11-Apr-2019 18:46

[Quote]

Информация о фильме
Название: Из ниоткуда
Оригинальное название: Out of Blue
Год выпуска: 2018
Жанр: Драма, криминал, детектив
Режиссер: Кэрол Морли
В ролях: Мэми Гаммер, Патришия Кларксон, Джеки Уивер, Джеймс Каан, Тоби Джонс, Аарон Твейт, Гэри Граббс, Алишия Окс, Джонатан Мэйджерс, Йолонда Росс
О фильме: В основе сюжета детективная новелла «Ночной Поезд» британского писателя Мартина Эмиса. После выступления на крыше обсерватории Нового Орлеана выдающийся астрофизик и эксперт по черным дырам Дженнифер Роквелл была найдена мертвой. Расследование преступления поручают детективу Хулихан, опытной женщине-полицейскому. Считая, что мотивом для убийства могла послужить зависть со стороны коллег, она начинает проверять ученых-астрофизиков. Однако вскоре осознает, что на первый взгляд простое дело оказывается одним из самых запутанных в ее карьере.

Выпущено: США, Великобритания, BBC Films, BFI Film Fund, Cannon and Morley Productions
Продолжительность: 01:49:25
Перевод: Профессиональный (многоголосый, закадровый) | HDRezka Studio
Файл
Качество: WEB-DLRip
Формат: AVI
Видео: 720x304 (2.37:1), 24.000 fps, XviD build 73 ~1704 kbps avg, 0.32 bit/pixel
Аудио: 48 kHz, AC3 Dolby Digital, 2/0 (L,R) ch, ~192 kbps
Субтитры: Нет

Скриншоты

MediaInfo

Формат : AVI
Формат/Информация : Audio Video Interleave
Размер файла : 1,46 Гбайт
Продолжительность : 1 ч. 49 м.
Общий поток : 1906 Кбит/сек
Программа кодирования : VirtualDubMod 1.5.10.3
Библиотека кодирования : VirtualDubMod build 2550/release
Видео
Идентификатор : 0
Формат : MPEG-4 Visual
Профиль формата : Advanced Simple@L5
Настройки формата : BVOP1 / Custom Matrix
Параметр BVOP формата : 1
Параметр QPel формата : Нет
Параметр GMC формата : Без точки перехода
Параметр матрицы формата : Выборочная
Идентификатор кодека : XVID
Идентификатор кодека/Подсказка : XviD
Продолжительность : 1 ч. 49 м.
Битрейт : 1704 Кбит/сек
Ширина : 720 пикселей
Высота : 304 пикселя
Соотношение сторон : 2,35:1
Частота кадров : 24,000 кадра/сек
Цветовое пространство : YUV
Субдискретизация насыщенности : 4:2:0
Битовая глубина : 8 бит
Тип развёртки : Прогрессивная
Метод сжатия : С потерями
Бит/(Пиксели*Кадры) : 0.324
Размер потока : 1,30 Гбайт (89%)
Библиотека кодирования : XviD 73
Аудио
Идентификатор : 1
Формат : AC-3
Формат/Информация : Audio Coding 3
Коммерческое название : Dolby Digital
Идентификатор кодека : 2000
Продолжительность : 1 ч. 49 м.
Вид битрейта : Постоянный
Битрейт : 192 Кбит/сек
Каналы : 2 канала
Channel layout : L R
Частота : 48,0 КГц
Частота кадров : 31,250 кадров/сек (1536 SPF)
Битовая глубина : 16 бит
Метод сжатия : С потерями
Размер потока : 150 Мбайт (10%)
Выравнивание : Разделение по промежуткам
Продолжительность промежутка : 42 мс. (1,00 видеокадр)
Время предзагрузки промежутка : 500 мс.
[Profile] [PM]
Кто просматривает тему:

Display posts from previous:    

The time now is: Today 12:06

All times are GMT



You cannot post new topics in this forum
You cannot reply to topics in this forum
You cannot edit your posts in this forum
You cannot delete your posts in this forum
You cannot vote in polls in this forum
You cannot attach files in this forum
You cannot download files in this forum