Из машины / Ex Machina (Алекс Гарленд / Alex Garland) [2015, Великобритания, Фантастика, драма, BDRip] Dub

 
Автор Сообщение

TorrentFilm ®

Пол:

Стаж: 2 года

Сообщений: 7741



Награды: Нет

Торрент-статистика

Создавать темы 22-Май-2015 00:04

[Цитировать]

Из машины / Ex Machina- Год выпуска: 2015
Выпущено: Великобритания / DNA Films
Жанр: фантастика, драма
Продолжительность: 01:48:00
Перевод: Профессиональный (полное дублирование) BD CEE
Субтитры: нет-Режиссер:
Алекс Гарленд / Alex Garland-В ролях:
Донал Глисон (Caleb), Алисия Викандер (Ava), Оскар Айзек (Nathan), Соноя Мидзуно (Kyoko), Кори Джонсон (Jay), Клер Шелби (Lily), Симара А. Темплмен (Jasmine), Гана Баярсаикян (Jade), Тиффани Писани (Katya), Элина Алминас (Amber)-Описание:
В центре сюжета — молодой человек, которого нанимает миллиардер, сделавший состояние на высокотехнологичных разработках. Задача работника — провести неделю в удаленном местечке, тестируя женщину-робота с искусственным интеллектом.-Релиз групп | | IMDB | КиноПоиск | Сэмпл |-Качество: BDRip [Blu-ray Disc | 1080p | HDCLUB]
Формат: AVI
Видео: 720x304 (2.37:1), 23.976 fps, XviD build 73 ~1477 kbps avg, 0.28 bit/pixel
Аудио: 48 kHz, AC3 Dolby Digital, 3/2 (L,C,R,l,r) + LFE ch, ~448.00 kbps avg
-

Скриншоты

MediaInfo

General
Complete name                            : D:\Iz_mashiny_2015_BDRip_by_Dalemake.avi
Format                                   : AVI
Format/Info                              : Audio Video Interleave
File size                                : 1.46 GiB
Duration                                 : 1h 48mn
Overall bit rate                         : 1 935 Kbps
Writing application                      : VirtualDubMod 1.5.10.3 | www.virtualdub-fr.org || (build 2550/release)
Writing library                          : VirtualDubMod build 2550/release
Video
ID                                       : 0
Format                                   : MPEG-4 Visual
Format profile                           : Advanced Simple@L5
Format settings, BVOP                    : 1
Format settings, QPel                    : No
Format settings, GMC                     : No warppoints
Format settings, Matrix                  : Custom
Codec ID                                 : XVID
Codec ID/Hint                            : XviD
Duration                                 : 1h 48mn
Bit rate                                 : 1 478 Kbps
Width                                    : 720 pixels
Height                                   : 304 pixels
Display aspect ratio                     : 2.35:1
Frame rate                               : 23.976 fps
Color space                              : YUV
Chroma subsampling                       : 4:2:0
Bit depth                                : 8 bits
Scan type                                : Progressive
Compression mode                         : Lossy
Bits/(Pixel*Frame)                       : 0.282
Stream size                              : 1.12 GiB (76%)
Writing library                          : XviD 73
Audio
ID                                       : 1
Format                                   : AC-3
Format/Info                              : Audio Coding 3
Mode extension                           : CM (complete main)
Format settings, Endianness              : Big
Codec ID                                 : 2000
Duration                                 : 1h 48mn
Bit rate mode                            : Constant
Bit rate                                 : 448 Kbps
Channel(s)                               : 6 channels
Channel positions                        : Front: L C R, Side: L R, LFE
Sampling rate                            : 48.0 KHz
Bit depth                                : 16 bits
Compression mode                         : Lossy
Stream size                              : 346 MiB (23%)
Alignment                                : Split accross interleaves
Interleave, duration                     : 42 ms (1.00 video frame)
Interleave, preload duration             : 500 ms
-
[Профиль] [ЛС]
Кто просматривает тему:

Показать сообщения:    

Текущее время: Сегодня 02:17

Часовой пояс: GMT



Вы не можете начинать темы
Вы не можете отвечать на сообщения
Вы не можете редактировать свои сообщения
Вы не можете удалять свои сообщения
Вы не можете голосовать в опросах
Вы не можете прикреплять файлы к сообщениям
Вы не можете скачивать файлы