Из машины / Ex Machina (2015) BDRip 720p | Лицензия

 
Автор Сообщение

достали все ®

Пол:

Стаж: 1 год 8 месяцев

Сообщений: 6571



Награды: 12 (Подробнее)

Mega Seeder 5 (Количество: 1) Mega Seeder 1 (Количество: 1) Mega Releaser 1 (Количество: 1)
Торрент-статистика

Создавать темы 15-Май-2015 08:17

[Цитировать]

Информация о фильме
Название: Из машины
Оригинальное название: Ex Machina
Год выхода: 2015
Жанр: фантастика, драма
Режиссер: Алекс Гарленд
В ролях: Донал Глисон, Кори Джонсон, Оскар Айзек, Алисия Викандер, Соноя Мизуно, Claire Selby, Симара А. Темплмен, Gana Bayarsaikhan, Тиффани Писани, Элина Алминас
О фильме: В центре сюжета — молодой человек, которого нанимает миллиардер, сделавший состояние на высокотехнологичных разработках. Задача работника — провести неделю в удаленном местечке, тестируя женщину-робота с искусственным интеллектом.

Выпущено: Великобритания
Продолжительность: 01:48:01
Озвучивание: Дублированное [лицензия]
Файл
Формат: MKV
Качество: BDRip 720p
Видео: 5728 kb/s, 1280x536
Аудио: Russian: AC3, 448 kb/s (6 ch) / English: DTS, 1510 kb/s (6 ch)

MI

Format : Matroska
Format version : Version 2
File size : 5.80 GiB
Duration : 1h 48mn
Overall bit rate : 7 685 Kbps
Encoded date : UTC 2015-05-15 01:12:14
Writing application : mkvmerge v7.9.0 ('Birds') 64bit
Writing library : libebml v1.3.1 + libmatroska v1.4.2
DURATION : 01:48:00.896000000
NUMBER_OF_FRAMES : 202528
NUMBER_OF_BYTES : 362930176
_STATISTICS_WRITING_APP : mkvmerge v7.9.0 ('Birds') 64bit
_STATISTICS_WRITING_DATE_UTC : 2015-05-15 01:12:14
_STATISTICS_TAGS : BPS DURATION NUMBER_OF_FRAMES NUMBER_OF_BYTES
Video
ID : 1
Format : AVC
Format/Info : Advanced Video Codec
Format profile : High@L4.1
Format settings, CABAC : Yes
Format settings, ReFrames : 5 frames
Codec ID : V_MPEG4/ISO/AVC
Duration : 1h 48mn
Bit rate : 5 728 Kbps
Width : 1 280 pixels
Height : 536 pixels
Display aspect ratio : 2.40:1
Frame rate : 23.976 fps
Color space : YUV
Chroma subsampling : 4:2:0
Bit depth : 8 bits
Scan type : Progressive
Bits/(Pixel*Frame) : 0.348
Stream size : 4.21 GiB (73%)
Writing library : x264 core 144 r2525 40bb568
Encoding settings : cabac=1 / ref=5 / deblock=1:0:0 / analyse=0x3:0x133 / me=umh / subme=7 / psy=1 / psy_rd=1.00:0.00 / mixed_ref=1 / me_range=16 / chroma_me=1 / trellis=1 / 8x8dct=1 / cqm=0 / deadzone=21,11 / fast_pskip=0 / chroma_qp_offset=-2 / threads=60 / lookahead_threads=4 / sliced_threads=0 / nr=0 / decimate=1 / interlaced=0 / bluray_compat=0 / constrained_intra=0 / bframes=3 / b_pyramid=2 / b_adapt=1 / b_bias=0 / direct=1 / weightb=1 / open_gop=0 / weightp=2 / keyint=250 / keyint_min=23 / scenecut=40 / intra_refresh=0 / rc_lookahead=40 / rc=2pass / mbtree=1 / bitrate=5728 / ratetol=1.0 / qcomp=0.60 / qpmin=0 / qpmax=69 / qpstep=4 / cplxblur=20.0 / qblur=0.5 / ip_ratio=1.40 / aq=1:1.00
Language : English
Default : Yes
Forced : No
DURATION : 01:48:00.860000000
NUMBER_OF_FRAMES : 155385
NUMBER_OF_BYTES : 4638234754
_STATISTICS_WRITING_APP : mkvmerge v7.9.0 ('Birds') 64bit
_STATISTICS_WRITING_DATE_UTC : 2015-05-15 01:12:14
_STATISTICS_TAGS : BPS DURATION NUMBER_OF_FRAMES NUMBER_OF_BYTES
Audio #1
ID : 2
Format : AC-3
Format/Info : Audio Coding 3
Mode extension : CM (complete main)
Format settings, Endianness : Big
Codec ID : A_AC3
Duration : 1h 48mn
Bit rate mode : Constant
Bit rate : 448 Kbps
Channel(s) : 6 channels
Channel positions : Front: L C R, Side: L R, LFE
Sampling rate : 48.0 KHz
Bit depth : 16 bits
Compression mode : Lossy
Stream size : 346 MiB (6%)
Language : Russian
Default : Yes
Forced : No
Audio #2
ID : 3
Format : DTS
Format/Info : Digital Theater Systems
Codec ID : A_DTS
Duration : 1h 48mn
Bit rate mode : Constant
Bit rate : 1 510 Kbps
Channel(s) : 6 channels
Channel positions : Front: L C R, Side: L R, LFE
Sampling rate : 48.0 KHz
Bit depth : 24 bits
Compression mode : Lossy
Stream size : 1.14 GiB (20%)
Language : English
Default : No
Forced : No
Menu
00:00:00.000 : en:00:00:00.000
00:04:34.941 : en:00:04:34.941
00:11:16.634 : en:00:11:16.634
00:15:08.157 : en:00:15:08.157
00:23:38.751 : en:00:23:38.751
00:31:57.999 : en:00:31:57.999
00:36:05.163 : en:00:36:05.163
00:40:26.758 : en:00:40:26.758
00:45:56.379 : en:00:45:56.379
00:53:28.956 : en:00:53:28.956
01:00:26.081 : en:01:00:26.081
01:04:01.254 : en:01:04:01.254
01:07:19.077 : en:01:07:19.077
01:13:22.023 : en:01:13:22.023
01:16:56.111 : en:01:16:56.111
01:21:36.517 : en:01:21:36.517
01:27:36.835 : en:01:27:36.835
01:32:54.152 : en:01:32:54.152
01:38:51.008 : en:01:38:51.008
01:42:26.932 : en:01:42:26.932

Скриншоты

[Профиль] [ЛС]
Кто просматривает тему:

Показать сообщения:    

Текущее время: Сегодня 18:37

Часовой пояс: GMT



Вы не можете начинать темы
Вы не можете отвечать на сообщения
Вы не можете редактировать свои сообщения
Вы не можете удалять свои сообщения
Вы не можете голосовать в опросах
Вы не можете прикреплять файлы к сообщениям
Вы не можете скачивать файлы