Из жизни начальника уголовного розыска (1983) DVDRip от New-Team

 
Автор Сообщение

sergej644 ®

Пол:

Стаж: 5 лет 7 месяцев

Сообщений: 6134

Откуда: Soviet Union



Награды: 9 (Подробнее)

Top Seeder 3 (Количество: 1) Top Seeder 2 (Количество: 1) Mega Seeder 3 (Количество: 1)
Торрент-статистика

Создавать темы 19-Янв-2015 23:47

[Цитировать]

Страна: CCCP
Производство: Студия Горького
Жанр: драма, криминал
Год выпуска: 1983
Продолжительность: 01:29:25
Перевод: не требуется
Оригинальная аудиодорожка: русский
Cубтитры: нет
Режиссер: Степан Пучинян
В ролях:
Кирилл Лавров, Леонид Филатов, Елена Проклова, Наташа Гонтуар, Александр Продан, Наталья Фатеева, Леонид Харитонов, Игорь Ливанов, Юрий Чернов, Александр Пашутин...

Cложные, противоречивые взаимоотношения между двумя совершенно разными людьми: начальником уголовного розыска и бывшим вором-рецидивистом, казалось заходят в тупик. Но критическая ситуация заставляет бывшего уголовника переступить порог недоверия и неприязни…- -Исходник: DVD5 R5
Тип релиза: DVDRip
Контейнер: AVI
Видео: 688x352 (1,955:1), 25 fps, XviD ~ 1026 kbps avg, 0.169 bit/pixel
Аудио: 48 kHz, MP3 2.0, 128 kbps
Раздача от:

MediaInfo

Общее
Полное имя : Iz.zhizni.nachalnika.ugolovnogo.rozyska.1983.DVDRip-745_[New-team]_by_AVP_Studio.avi
Формат : AVI
Формат/Информация : Audio Video Interleave
Размер файла : 744 Мбайт
Продолжительность : 1 ч. 29 м.
Общий поток : 1163 Кбит/сек
Программа кодирования : VirtualDubModRus 1.5.10.2 (build 2542/release)
Библиотека кодирования : VirtualDubMod build 2542/release
Видео
Идентификатор : 0
Формат : MPEG-4 Visual
Профиль формата : Advanced Simple@L5
Параметр BVOP формата : 1
Параметр QPel формата : Нет
Параметр GMC формата : Без точки перехода
Параметр матрицы формата : Выборочная
Идентификатор кодека : XVID
Идентификатор кодека/Подсказка : XviD
Продолжительность : 1 ч. 29 м.
Битрейт : 1026 Кбит/сек
Ширина : 688 пикселей
Высота : 352 пикселя
Соотношение сторон : 1,955
Частота кадров : 25,000 кадров/сек
Цветовое пространство : YUV
Субдискретизация насыщенности : 4:2:0
Битовая глубина : 8 бит
Тип развёртки : Прогрессивная
Метод сжатия : С потерями
Бит/(Пиксели*Кадры) : 0.169
Размер потока : 656 Мбайт (88%)
Библиотека кодирования : XviD 73
Аудио
Идентификатор : 1
Формат : MPEG Audio
Версия формата : Version 1
Профиль формата : Layer 3
Идентификатор кодека : 55
Идентификатор кодека/Подсказка : MP3
Продолжительность : 1 ч. 29 м.
Вид битрейта : Постоянный
Битрейт : 128 Кбит/сек
Каналы : 2 канала
Частота : 48,0 КГц
Метод сжатия : С потерями
Размер потока : 81,9 Мбайт (11%)
Выравнивание : Соединение по промежуткам
Продолжительность промежутка : 40 мс. (1,00 видеокадр)
Время предзагрузки промежутка : 504 мс.
Библиотека кодирования : LAME3.99r
Настройки программы : -m s -V 4 -q 2 -lowpass 17 -b 128

Скриншоты

Интересные факты

Во время разговора в машине, когда герой Филатова сидит за рулем, машина проезжает по Ворошиловскому проспекту. Для съемок этой сцены проспект был перекрыт, но только участок от улицы Красноармейской до площади Гагарина. Из-за этого можно видеть, как в процессе разговора машина постоянно ездит туда-сюда мимо одного и того же магазина «Кооператор Дона». В той же части фильма после виража Степан выглядывает из окна автомобиля — его волосы растрепаны. До и после этого персонаж Филатова ведет машину с причесанными, зализанными волосами.
Подземный переход, по которому переходит герой Лаврова, составлен из двух. Один действительно расположен недалеко от здания ГУВД, но выход снят в другом переходе, все на том же Ворошиловском проспекте.
Основные сцены — стрельба, погони, драки на крыше гаражей, эффектные падения с третьего этажа и многое другое — снимались в старом дворе дома 31 по проспекту Соколова. Не вошло в фильм.
Ограбление аптеки (для этого из штаба ДНД декораторы устроили аптеку, а настоящую аптеку в 10 метрах просто не включили в кадр), взлом склада — также не вошли в фильм.
[Профиль] [ЛС]

Создавать темы 06-Авг-2015 22:00 (спустя 6 месяцев 17 дней)

Топик был перенесен из форума Кино СССР в форум Кино СССР
sergej644
 
Кто просматривает тему:

Показать сообщения:    

Текущее время: Сегодня 18:14

Часовой пояс: GMT



Вы не можете начинать темы
Вы не можете отвечать на сообщения
Вы не можете редактировать свои сообщения
Вы не можете удалять свои сообщения
Вы не можете голосовать в опросах
Вы не можете прикреплять файлы к сообщениям
Вы не можете скачивать файлы