Из Вегаса в Макао 3 / Du cheng feng yun III (2016) BDRip 720р | L1

 
Автор Сообщение

достали все ®

Пол:

Стаж: 1 год 8 месяцев

Сообщений: 6571



Награды: 12 (Подробнее)

Mega Seeder 3 (Количество: 1) Mega Seeder 4 (Количество: 1) Mega Releaser 1 (Количество: 1)
Торрент-статистика

Создавать темы 30-Июн-2016 14:01

[Цитировать]

Из Вегаса в Макао 3 / From Vegas to Macau III / Du cheng feng yun III
Страна: Гонконг Китай
Год выпуска: 2016
Жанр: драма, комедия
Продолжительность: 01:52:33
Режиссер: Вон Цзин
Автор сценария: Вон Цзин
В ролях: Салли Виктория Бэнсон, Джеки Чун, Ник Чун Ка-фай, Дэвид Чианг, Чоу Юнь-Фат, Мария Кордеро, Эндрю Даш, Чарльз Хюн, Джеки Хеунг
Описание: События разворачиваются на фоне свадьбы дочери Кена, которая выходит замуж за его протеже Винсента. Но в день свадьбы поступает звонок — таинственный враг планирует сорвать мероприятие, он даже подослал убийц, чтобы разобраться с авантюристом и его близкими...

Перевод: Любительский (одноголосый, закадровый) | den904
Субтитры: английские-Качество: BDRip 720р
Формат: MKV
Видео кодек: AVC
Аудио кодек: AС3
Видео: 1280x536 (2.40:1), 24.000 fps, MPEG-4 AVC ~4 721 kbps
Аудио №1: 48.0 kHz, AC3 Dolby Digital, 2/0 (L,R) ch, ~192.00 kbps | RUS / den904
Аудио №2: 48.0 kHz, AC3 Dolby Digital, 3/2 (L,C,R,l,r) + LFE ch, ~640 kbps avg | CHI / Cantonese
Формат субтитров: UTF-8 Plain Text
Дата премьеры (мир): 5 февраля 2016

Media Info

General
Unique ID : 187898681187173288463998217499125416262 (0x8D5BF83BB2C80EDDADC1E6088ACF0146)
Format : Matroska
Format version : Version 4 / Version 2
Overall bit rate : 5 666 Kbps
Encoded date : UTC 2016-06-29 20:10:57
Writing application : mkvmerge v8.5.2 ('Crosses') 64bit
Writing library : libebml v1.3.3 + libmatroska v1.4.4
DURATION : 00:01:58.917000000
NUMBER_OF_FRAMES : 46
NUMBER_OF_BYTES : 1555
_STATISTICS_WRITING_APP : mkvmerge v8.5.2 ('Crosses') 64bit
_STATISTICS_WRITING_DATE_UTC : 2016-06-29 20:10:57
_STATISTICS_TAGS : BPS DURATION NUMBER_OF_FRAMES NUMBER_OF_BYTES
Video
ID : 1
Format : AVC
Format/Info : Advanced Video Codec
Format settings, CABAC : Yes
Format settings, ReFrames : 12 frames
Codec ID : V_MPEG4/ISO/AVC
Bit rate : 4 721 Kbps
Width : 1 280 pixels
Height : 536 pixels
Display aspect ratio : 2.40:1
Frame rate mode : Constant
Frame rate : 24.000 fps
Color space : YUV
Chroma subsampling : 4:2:0
Bit depth : 8 bits
Scan type : Progressive
Bits/(Pixel*Frame) : 0.287
Stream size : 67.1 MiB (83%)
Language : Chinese
Default : Yes
Forced : No
Color range : Limited
Matrix coefficients : BT.709
DURATION : 00:01:58.626000000
NUMBER_OF_FRAMES : 2847
NUMBER_OF_BYTES : 72076943
_STATISTICS_WRITING_APP : mkvmerge v8.5.2 ('Crosses') 64bit
_STATISTICS_WRITING_DATE_UTC : 2016-06-29 20:10:57
_STATISTICS_TAGS : BPS DURATION NUMBER_OF_FRAMES NUMBER_OF_BYTES
Audio #1
ID : 2
Format : AC-3
Format/Info : Audio Coding 3
Mode extension : CM (complete main)
Format settings, Endianness : Big
Codec ID : A_AC3
Bit rate mode : Constant
Bit rate : 192 Kbps
Channel(s) : 2 channels
Channel positions : Front: L R
Sampling rate : 48.0 KHz
Compression mode : Lossy
Stream size : 2.73 MiB (3%)
Default : Yes
Forced : No
Audio #2
ID : 3
Format : AC-3
Format/Info : Audio Coding 3
Mode extension : CM (complete main)
Format settings, Endianness : Big
Codec ID : A_AC3
Bit rate mode : Constant
Bit rate : 640 Kbps
Channel(s) : 6 channels
Channel positions : Front: L C R, Side: L R, LFE
Sampling rate : 48.0 KHz
Compression mode : Lossy
Stream size : 9.10 MiB (11%)
Title : Cantonese
Language : Chinese
Default : No
Forced : No
Text
ID : 4
Format : UTF-8
Codec ID : S_TEXT/UTF8
Codec ID/Info : UTF-8 Plain Text
Default : No
Forced : No

Скриншоты

[Профиль] [ЛС]
Кто просматривает тему:

Показать сообщения:    

Текущее время: Сегодня 20:25

Часовой пояс: GMT



Вы не можете начинать темы
Вы не можете отвечать на сообщения
Вы не можете редактировать свои сообщения
Вы не можете удалять свои сообщения
Вы не можете голосовать в опросах
Вы не можете прикреплять файлы к сообщениям
Вы не можете скачивать файлы