Из Вегаса в Макао 2 / Ao Men feng yun 2 (2015) BDRip 720p | L1

 
Автор Сообщение

достали все ®

Пол:

Стаж: 1 год 8 месяцев

Сообщений: 6515



Награды: 12 (Подробнее)

Mega Seeder 5 (Количество: 1) За внесенный вклад в развитие сайта (Количество: 1) Mega Releaser 2 (Количество: 1)
Торрент-статистика

Создавать темы 17-Июн-2015 09:56

[Цитировать]

Информация о фильме
Название: Из Вегаса в Макао 2
Оригинальное название: Ao Men feng yun 2
Год выхода: 2015
Жанр: комедия, боевик
Режиссер: Цзин Вон
В ролях: Ник Чун, Чоу Юнь-Фат, Дэниэл Гарсиа, Энди Лау, Карина Лау, Мэтт Тотти, Шон Юе, Светлана Завьялова
О фильме: Вторая часть искрометной комедии, где главные действующие лица - заядлые и азартные мастера карточных игр.

Выпущено: Китай / Bona International Film Group, Media Asia Films Ltd., Mega-Vision Pictures (MVP), Sun Entertainment Culture
Продолжительность: 01:50:15
Озвучивание: Любительское (одноголосое) [den904], перевод [Skyworker]
Файл
Формат: MKV
Качество: BDRip 720p
Видео: 4954 kb/s, 1280x536
Аудио: Russian: AC3, 192 kb/s (2 ch) / Chinese: AC3, 640 kb/s (6 ch)
Субтитры: Chinese

MI

Format : Matroska
Format version : Version 4 / Version 2
File size : 4.44 GiB
Duration : 1h 50mn
Overall bit rate : 5 770 Kbps
Movie name : Jubowo @ WiKi
Encoded date : UTC 2015-06-16 17:39:21
Writing application : mkvmerge v7.8.0 ('River Man') 32bit built on Mar 27 2015 16:18:02
Writing library : libebml v1.3.1 + libmatroska v1.4.2
_STATISTICS_WRITING_APP : mkvmerge v7.8.0 ('River Man') 32bit built on Mar 27 2015 16:18:02
_STATISTICS_WRITING_DATE_UTC : 2015-06-16 17:39:21
_STATISTICS_TAGS : BPS DURATION NUMBER_OF_FRAMES NUMBER_OF_BYTES
DURATION : 01:50:14.400000000
NUMBER_OF_FRAMES : 206700
NUMBER_OF_BYTES : 158745600
Video
ID : 1
Format : AVC
Format/Info : Advanced Video Codec
Format profile : High@L4.1
Format settings, CABAC : Yes
Format settings, ReFrames : 12 frames
Codec ID : V_MPEG4/ISO/AVC
Duration : 1h 50mn
Bit rate : 4 954 Kbps
Width : 1 280 pixels
Height : 536 pixels
Display aspect ratio : 2.40:1
Frame rate : 24.000 fps
Color space : YUV
Chroma subsampling : 4:2:0
Bit depth : 8 bits
Scan type : Progressive
Bits/(Pixel*Frame) : 0.301
Stream size : 3.71 GiB (84%)
Writing library : x264 core 129 r2245+704+36 8e61944 tMod+MixAQ [8-bit@4:2:0 X86_64]
Encoding settings : cabac=1 / ref=12 / deblock=1:-3:-3 / analyse=0x3:0x133 / me=umh / subme=11 / psy=1 / fade_compensate=0.00 / psy_rd=1.05:0.10 / mixed_ref=1 / me_range=32 / chroma_me=1 / trellis=2 / 8x8dct=1 / cqm=0 / deadzone=21,11 / fast_pskip=0 / chroma_qp_offset=-3 / threads=18 / lookahead_threads=3 / sliced_threads=0 / nr=0 / decimate=0 / interlaced=0 / bluray_compat=0 / constrained_intra=0 / fgo=0 / bframes=10 / b_pyramid=2 / b_adapt=2 / b_bias=0 / direct=3 / weightb=1 / open_gop=0 / weightp=2 / keyint=250 / keyint_min=24 / scenecut=40 / intra_refresh=0 / rc_lookahead=80 / rc=2pass / mbtree=1 / bitrate=4954 / ratetol=1.0 / qcomp=0.70 / qpmin=0 / qpmax=69 / qpstep=4 / cplxblur=20.0 / qblur=0.5 / ip_ratio=1.40 / aq=3 / aq-strength=0.85 / aq-sensitivity=10.00 / aq-ifactor=1.00 / aq-pfactor=1.00 / aq-bfactor=1.00 / aq2=0
Language : Chinese
Default : Yes
Forced : No
_STATISTICS_WRITING_APP : mkvmerge v7.8.0 ('River Man') 32bit built on Mar 27 2015 16:18:02
_STATISTICS_WRITING_DATE_UTC : 2015-06-16 17:39:21
_STATISTICS_TAGS : BPS DURATION NUMBER_OF_FRAMES NUMBER_OF_BYTES
DURATION : 01:50:14.542000000
NUMBER_OF_FRAMES : 158749
NUMBER_OF_BYTES : 4080935600
Matrix coefficients : BT.709-5, BT.1361, IEC 61966-2-4 709, SMPTE RP177
Audio #1
ID : 2
Format : AC-3
Format/Info : Audio Coding 3
Mode extension : CM (complete main)
Format settings, Endianness : Big
Codec ID : A_AC3
Duration : 1h 50mn
Bit rate mode : Constant
Bit rate : 192 Kbps
Channel(s) : 2 channels
Channel positions : Front: L R
Sampling rate : 48.0 KHz
Bit depth : 16 bits
Compression mode : Lossy
Stream size : 151 MiB (3%)
Language : Russian
Default : Yes
Forced : Yes
Audio #2
ID : 3
Format : AC-3
Format/Info : Audio Coding 3
Mode extension : CM (complete main)
Format settings, Endianness : Big
Codec ID : A_AC3
Duration : 1h 50mn
Bit rate mode : Constant
Bit rate : 640 Kbps
Channel(s) : 6 channels
Channel positions : Front: L C R, Side: L R, LFE
Sampling rate : 48.0 KHz
Bit depth : 16 bits
Compression mode : Lossy
Stream size : 505 MiB (11%)
Title : Cantonese
Language : Chinese
Default : No
Forced : No
Text
ID : 4
Format : UTF-8
Codec ID : S_TEXT/UTF8
Codec ID/Info : UTF-8 Plain Text
Title : Traditional
Language : Chinese
Default : No
Forced : No
Menu
00:00:00.000 : en:00:00:00.000
00:10:34.958 : en:00:10:34.958
00:19:31.083 : en:00:19:31.083
00:27:38.583 : en:00:27:38.583
00:36:14.458 : en:00:36:14.458
00:46:01.958 : en:00:46:01.958
00:55:26.958 : en:00:55:26.958
01:03:06.166 : en:01:03:06.166
01:12:28.791 : en:01:12:28.791
01:23:58.541 : en:01:23:58.541
01:30:17.000 : en:01:30:17.000
01:38:54.958 : en:01:38:54.958

Скриншоты

[Профиль] [ЛС]
Кто просматривает тему:

Показать сообщения:    

Текущее время: Сегодня 05:01

Часовой пояс: GMT



Вы не можете начинать темы
Вы не можете отвечать на сообщения
Вы не можете редактировать свои сообщения
Вы не можете удалять свои сообщения
Вы не можете голосовать в опросах
Вы не можете прикреплять файлы к сообщениям
Вы не можете скачивать файлы