Изучая время / Exploring Time (Джонатан Группер, Томас Лукас) [2007, Документальный, научно-популярный, HDTVRip 720p]

 
Автор Сообщение

TorrentFilm ®

Пол:

Стаж: 1 год 11 месяцев

Сообщений: 7741



Награды: Нет

Торрент-статистика

Создавать темы 30-Апр-2015 00:04

[Цитировать]

Изучая время / Exploring Time
Год выпуска: 2007
Страна: США, Великобритания, Япония
Студия: Twin Cities Public Television, Red Hill Studios, NHK
Жанр: Документальный, научно-популярный
Продолжительность: 2 x ~ 00:52:30
Перевод: Профессиональный (двухголосый закадровый)
Доп. инфо о переводе: Selena International по заказу агентства "Русский репортаж"
Русские субтитры: нет
Режиссер: Джонатан Группер, Томас Лукас
Описание: Каждый день, замечая это или нет, бесконечный виток изменений происходит без паузы, течет неумолимо по реке времени, через и вокруг нас. Удивительно, в большинстве случае мы никогда не видим эти жизненно важные процессы. На самом деле мы не можем их видеть, потому что эти события происходят слишком быстро или слишком медленно. В настоящее время ученые открывают новые открытия, освещая природу от внутренней работы атомов в движениях звезд, от миллиардной секунде в работе сердца, до миллиардов лет изменений во вселенной.
Сэмпл: http://multi-up.com/1045632
Тип релиза: HDTVRip 720p
Контейнер: MKV
Видео: 1280x720 (16:9), MPEG4 Video (H264), 3500 kbps, 25fps, 0.152 bit/pixel
Аудио: Русский: 48 kHz, AC3 Dolby Digital, 3/2 (L,C,R,l,r) + LFE ch, 448 kbps avg

MediaInfo

GeneralUnique ID : 246667474831685553235213019457305881596 (0xB9926D77BFB63167BE03111F5062ABFC)Complete name : M:\Торренты\Документальные\Изучая время\Изучая время_1_720.mkvFormat : MatroskaFormat version : Version 4 / Version 2File size : 1.45 GiBDuration : 52mn 29sOverall bit rate : 3 950 KbpsEncoded date : UTC 2014-10-25 11:57:30Writing application : mkvmerge v6.6.0 ('The Edge Of The In Between') built on Dec 1 2013 17:55:00Writing library : libebml v1.3.0 + libmatroska v1.4.1
VideoID : 1Format : AVCFormat/Info : Advanced Video CodecFormat profile : High@L4.1Format settings, CABAC : YesFormat settings, ReFrames : 9 framesCodec ID : V_MPEG4/ISO/AVCDuration : 52mn 29sBit rate : 3 500 KbpsWidth : 1 280 pixelsHeight : 720 pixelsDisplay aspect ratio : 16:9Frame rate mode : ConstantFrame rate : 25.000 fpsColor space : YUVChroma subsampling : 4:2:0Bit depth : 8 bitsScan type : ProgressiveBits/(Pixel*Frame) : 0.152Stream size : 1.26 GiB (87%)Writing library : x264 core 142 r2431 ac76440Encoding settings : cabac=1 / ref=9 / deblock=1:-1:-1 / analyse=0x3:0x133 / me=umh / subme=9 / psy=1 / psy_rd=1.00:0.10 / mixed_ref=1 / me_range=32 / chroma_me=1 / trellis=2 / 8x8dct=1 / cqm=0 / deadzone=21,11 / fast_pskip=1 / chroma_qp_offset=-3 / threads=6 / lookahead_threads=1 / sliced_threads=0 / nr=0 / decimate=0 / interlaced=0 / bluray_compat=0 / constrained_intra=0 / bframes=6 / b_pyramid=2 / b_adapt=2 / b_bias=0 / direct=3 / weightb=1 / open_gop=0 / weightp=2 / keyint=250 / keyint_min=23 / scenecut=40 / intra_refresh=0 / rc=2pass / mbtree=0 / bitrate=3500 / ratetol=1.0 / qcomp=0.60 / qpmin=0 / qpmax=69 / qpstep=4 / cplxblur=20.0 / qblur=0.5 / ip_ratio=1.40 / pb_ratio=1.30 / aq=1:1.00Language : EnglishDefault : YesForced : No
AudioID : 2Format : AC-3Format/Info : Audio Coding 3Mode extension : CM (complete main)Format settings, Endianness : BigCodec ID : A_AC3Duration : 52mn 29sBit rate mode : ConstantBit rate : 448 KbpsChannel(s) : 6 channelsChannel positions : Front: L C R, Side: L R, LFESampling rate : 48.0 KHzBit depth : 16 bitsCompression mode : LossyDelay relative to video : 93msStream size : 168 MiB (11%)Language : RussianDefault : YesForced : No

Скриншоты


[Профиль] [ЛС]
Показать сообщения:    

Текущее время: Сегодня 07:06

Часовой пояс: GMT



Вы не можете начинать темы
Вы не можете отвечать на сообщения
Вы не можете редактировать свои сообщения
Вы не можете удалять свои сообщения
Вы не можете голосовать в опросах
Вы не можете прикреплять файлы к сообщениям
Вы не можете скачивать файлы