Изощренный убийца / Certain Prey (2011) HDTVRip

 
Автор Сообщение

sergej644 ®

Пол:

Стаж: 4 года 11 месяцев

Сообщений: 6046

Откуда: Soviet Union



Награды: Нет

Торрент-статистика

Создавать темы 08-Авг-2014 21:36

[Цитировать]

-Изощренный убийца / Certain Prey (2011) HDTVRip-- Русское название: Изощренный убийца
Оригинальное название: Certain Prey
Год выпуска: 2011
Страна: США | Jaffe/Braunstein Films
Жанр: триллер, драма, криминал--Описание фильма:
Заместитель начальника полиции Лукас Давенпорт вступает в интеллектуальную схватку с искусным убийцей, который всегда на шаг впереди представителей власти и настолько предусмотрителен, что никто не может определить его слабые стороны и предугадать последующие действия.--Режиссер: Крис Джеролмо
Актеры: Лола Глаудини Марк Хэрмон Татьяна Маслани Кейт Гринхаус Арт Хиндл Эйдан Дивайн Афина Карканис Ананд Раджарам Род Уилсон Марк Тейлор ...
Продолжительность: 01:28:14
Перевод: Дублированный [TV 1000]

Дата мировой премьеры: 6 ноября 2011
Видеокодек: Xvid
Битрейт видео: ~978 kbps
Размер кадра: 624*352
Качество видео: HDTVRip
Аудиокодек: MP3, 2 ch
Битрейт аудио: 128 kbps-

MediaInfo:

General
Complete name                            : :\\Certain.prey.D.2011.HDTVRip.avi
Format                                   : AVI
Format/Info                              : Audio Video Interleave
File size                                : 704 MiB
Duration                                 : 1h 28mn
Overall bit rate                         : 1 116 Kbps
Writing application                      : VirtualDubMod 1.5.10.3 | [url=http://www.virtualdub-fr.org]www.virtualdub-fr.org[/url] || (build 2550/release)
Writing library                          : VirtualDubMod build 2550/release
Video
ID                                       : 0
Format                                   : MPEG-4 Visual
Format profile                           : Advanced Simple@L5
Format settings, BVOP                    : 2
Format settings, QPel                    : No
Format settings, GMC                     : No warppoints
Format settings, Matrix                  : Default (H.263)
Codec ID                                 : XVID
Codec ID/Hint                            : XviD
Duration                                 : 1h 28mn
Bit rate                                 : 978 Kbps
Width                                    : 624 pixels
Height                                   : 352 pixels
Display aspect ratio                     : 16:9
Frame rate                               : 23.976 fps
Color space                              : YUV
Chroma subsampling                       : 4:2:0
Bit depth                                : 8 bits
Scan type                                : Progressive
Compression mode                         : Lossy
Bits/(Pixel*Frame)                       : 0.186
Stream size                              : 617 MiB (88%)
Writing library                          : XviD 1.3.0.dev55
Audio
ID                                       : 1
Format                                   : MPEG Audio
Format version                           : Version 1
Format profile                           : Layer 3
Codec ID                                 : 55
Codec ID/Hint                            : MP3
Duration                                 : 1h 28mn
Bit rate mode                            : Constant
Bit rate                                 : 128 Kbps
Channel(s)                               : 2 channels
Sampling rate                            : 44.1 KHz
Compression mode                         : Lossy
Stream size                              : 80.8 MiB (11%)
Alignment                                : Split accross interleaves
Interleave, duration                     : 42 ms (1.00 video frame)
Interleave, preload duration             : 500 ms
Время раздачи: 24/7 до первых 3-х скачавших
[Профиль] [ЛС]

Создавать темы 06-Авг-2015 23:20 (спустя 11 месяцев)

Топик был перенесен из форума Фильмы до 2014 года в форум Фильмы до 2012 года
sergej644
 
Кто просматривает тему:

Показать сообщения:    

Текущее время: Сегодня 02:32

Часовой пояс: GMT



Вы не можете начинать темы
Вы не можете отвечать на сообщения
Вы не можете редактировать свои сообщения
Вы не можете удалять свои сообщения
Вы не можете голосовать в опросах
Вы не можете прикреплять файлы к сообщениям
Вы не можете скачивать файлы