Измена (Кирилл Серебренников) [2012, Россия, триллер, драма, DVD5 (Сжатый)] исх. R5, + Sub Eng + Original Rus

 
Автор Сообщение

TorrentFilm ®

Пол:

Стаж: 2 года

Сообщений: 7741



Награды: Нет

Торрент-статистика

Создавать темы 02-Янв-2016 00:03

[Цитировать]

Измена
Страна: Россия
Жанр: триллер, драма
Год выпуска: 2012
Продолжительность: 01:54:42
Перевод: Оригинал [Лицензия]
Cубтитры: английские
Оригинальная аудиодорожка: русский
Режиссер: Кирилл Серебренников
В ролях: Франциска Петри, Деян Лилич, Альбина Джанабаева, Андрей Щетинин, Артурс Скрастыньш, Гуна Зариня, Артур Бесчастный, Александра Нестерова, Валерий Горин, Ольга Альбанова
Описание: Двое случайных знакомых узнают о том, что их супруги являются любовниками. Это открытие заставляет их совершать поступки, на которые они не решились бы ранее.
Ревность или страсть, месть или прощение — герои ищут основы для новой жизни, но сделать это нелегко — измена подчиняет все их поступки своей логике.
Бонусы: нет
Меню: русское, статичное, озвученное
Тип релиза: DVD5 (Сжатый)
Контейнер: DVD-Video
Видео: PAL 16:9 (720x576) 4 853 Kbps
Аудио: Russian (Dolby AC3, 6 ch) 448 Kbps
http://www.youtube.com/watch?v=SKT9HshSTwI

Доп. информация

Обработано в DVDRemake Pro.+Photoshop+Muxman
Видео сжималось 21%.
Сжималось связкой DVD Rebuilder + CCE/Procoder в 5 проходов.
Удалёно: Фильм о фильме, Фильмографии создателей, Фотографии, Скоро на DVD, Russian (Dolby AC3, 2 ch), заставки и предупреждение.
Лишние кнопки затерты и закрыты.

Лог кодирования

-----------------
[21:33:21] Phase I, PREPARATION started.
- DVD-RB v1.28.2
- AVISYNTH 2.5.8.0
- CCE 1.0.1.9 encoder selected.
- Source: IZMENA.2012.DVD5
- VTS_01: 2 758 430 sectors.
-- Scanning and writing .D2V & .AVS files
-- Processed 171 988 frames.
-- Building .AVS and .ECL files
- Reduction Level for DVD-5: 79,4%
- Overall Bitrate : 4 825Kbs
- Space for Video : 4 052 004KB
- HIGH/LOW/TYPICAL Bitrates: 4 841/1 229/4 825 Kbs
[21:39:42] Phase I, PREPARATION completed in 6 minutes.
- WARNING: Viewer/Editor settings are over target.
[21:44:03] Phase II ENCODING started
- Extracting STILLS for VTS_01 segment 0
- Creating M2V for VTS_01 segment 1
- Creating M2V for VTS_01 segment 2
- Creating M2V for VTS_01 segment 3
- Creating M2V for VTS_01 segment 4
- Creating M2V for VTS_01 segment 5
- Creating M2V for VTS_01 segment 6
- Creating M2V for VTS_01 segment 7
- Creating M2V for VTS_01 segment 8
- Creating M2V for VTS_01 segment 9
- Creating M2V for VTS_01 segment 10
- Creating M2V for VTS_01 segment 11
- Creating M2V for VTS_01 segment 12
- Creating M2V for VTS_01 segment 13
- Creating M2V for VTS_01 segment 14
- Extracting STILLS for VTS_01 segment 15
[22:41:55] Phase II ENCODING completed in 57 minutes.
[22:41:59] Phase III, REBUILD started.
- Copying IFO, BUP, and unaltered files...
- Processing VTS_01
- Reading/processing TMAP table...
- Rebuilding seg 0 VOBID 1 CELLID 1
- Updating NAVPACKS for VOBID_01
- Rebuilding seg 1 VOBID 2 CELLID 1
- Rebuilding seg 2 VOBID 2 CELLID 2
- Rebuilding seg 3 VOBID 2 CELLID 3
- Rebuilding seg 4 VOBID 2 CELLID 4
- Rebuilding seg 5 VOBID 2 CELLID 5
- Rebuilding seg 6 VOBID 2 CELLID 6
- Rebuilding seg 7 VOBID 2 CELLID 7
- Rebuilding seg 8 VOBID 2 CELLID 8
- Rebuilding seg 9 VOBID 2 CELLID 9
- Rebuilding seg 10 VOBID 2 CELLID 10
- Rebuilding seg 11 VOBID 2 CELLID 11
- Rebuilding seg 12 VOBID 2 CELLID 12
- Rebuilding seg 13 VOBID 2 CELLID 13
- Rebuilding seg 14 VOBID 2 CELLID 14
- Updating NAVPACKS for VOBID_02
- Rebuilding seg 15 VOBID 3 CELLID 1
- Updating NAVPACKS for VOBID_03
- Updated VTS_C_ADT.
- Updated VTS_VOBU_ADMAP.
- Updated IFO: VTS_01_0.IFO
- Updating TMAP table...
- Correcting VTS Sectors...
[22:52:41] Phase III, REBUILD completed in 11 minutes.
Done.

MediaInfo

General
Complete name : D:\_Video\Izmena.2012.DVD5\VIDEO_TS\VTS_01_1.VOB
Format : MPEG-PS
File size : 1 024 MiB
Duration : 26mn 28s
Overall bit rate : 5 408 Kbps
Video
ID : 224 (0xE0)
Format : MPEG Video
Format version : Version 2
Format profile : Main@Main
Format settings, BVOP : Yes
Format settings, Matrix : Custom
Duration : 26mn 28s
Bit rate mode : Variable
Bit rate : 4 853 Kbps
Width : 720 pixels
Height : 576 pixels
Display aspect ratio : 2.35:1
Frame rate : 25.000 fps
Standard : PAL
Color space : YUV
Chroma subsampling : 4:2:0
Bit depth : 8 bits
Compression mode : Lossy
Bits/(Pixel*Frame) : 0.468
Stream size : 919 MiB (90%)
Audio
ID : 189 (0xBD)-128 (0x80)
Format : AC-3
Format/Info : Audio Coding 3
Mode extension : CM (complete main)
Muxing mode : DVD-Video
Duration : 26mn 28s
Bit rate mode : Constant
Bit rate : 448 Kbps
Channel(s) : 6 channels
Channel positions : Front: L C R, Side: L R, LFE
Sampling rate : 48.0 KHz
Bit depth : 16 bits
Compression mode : Lossy
Stream size : 84.8 MiB (8%)
Menu

DVDInfo

Title: Bob
Size: 4.35 Gb ( 4 565 992 KBytes ) - DVD-5
Enabled regions: 1, 2, 3, 4, 5, 6, 7, 8
VTS_01 :
Play Length: 01:54:39
Video: PAL 16:9 (720x576) VBR, Auto Pan&Scan
Audio:
Russian (Dolby AC3, 6 ch)
Russian (Dolby AC3, 2 ch)
Subtitles:
English
English
English
VTS_02 :
Play Length:
Video: PAL 16:9 (720x576) VBR, Auto Pan&Scan
Audio:
Russian (Dolby AC3, 2 ch)
VTS_03 :
Play Length:
Video: PAL 16:9 (720x576) VBR, Auto Pan&Scan
Audio:
Russian (Dolby AC3, 2 ch)
VTS_04 :
Play Length: 00:00:01
Video: PAL 16:9 (720x576) VBR, Auto Pan&Scan
Audio:
Russian (Dolby AC3, 2 ch)
VTS_05 :
Play Length: 00:00:04
Video: PAL 16:9 (720x576) VBR, Auto Pan&Scan
Audio:
Russian (Dolby AC3, 2 ch)
VTS_06 :
Play Length: 00:00:01
Video: PAL 16:9 (720x576) VBR, Auto Pan&Scan
Audio:
Russian (Dolby AC3, 6 ch)

Cкриншот финального проекта

Скриншоты меню

Скриншоты



Раздача от группы:
[Профиль] [ЛС]
Кто просматривает тему:

Форум Тема Автор Размер
Работа с носителями информации Nero 6.3.1.11 OEM Suite (изменен 19 января 2010 года) TorrentFilm 646 MB
Viasat History Viasat History: Как болезни монархов изменили историю / Fit to Rule: How Royal Illness Changed History [серии 1-3 из 3] (Paul Berczeller, Eleanor Scoones, Nick Gillam-Smith) [2013 г., Документальный,... skorpionN 2.55 GB
Viasat History Viasat History: Как климат изменил ход истории / How Climate Made History [серии 1-2 из 2] (Sigrun Laste) [2015 г., Документальный, климат, история, SATRip] skorpionN 1.45 GB
Биографии и личности Гений Великобритании: Ученые, которые изменили мир / Genius of Britain: The Scientists World [серии 1-5 из 5] (Кристофер Сайкс, Джонатан Руд) [2010 г., Документальный, познавательный, история, SATRip] skorpionN 3.56 GB
Научная и техническая литература Геннадий Ангелов - Люди, изменившие мир (2015) [FB2] Garik014 4 MB
Фильмы (DVD 5/9) Измена (Кирилл Серебренников) [2012, Россия, триллер, драма, DVD9] R5 Sub Eng + Original Rus TorrentFilm 7.49 GB
Зарубежные Измена / Предательство / Betrayal [S01] (2013) WEB-DLRip | Первый канал Белочка 6.84 GB
Отечественные cериалы Измены [01-16 из 16] (2015) SATRip BOSS 9.3 GB
Показать сообщения:    

Текущее время: Сегодня 18:51

Часовой пояс: GMT



Вы не можете начинать темы
Вы не можете отвечать на сообщения
Вы не можете редактировать свои сообщения
Вы не можете удалять свои сообщения
Вы не можете голосовать в опросах
Вы не можете прикреплять файлы к сообщениям
Вы не можете скачивать файлы