Изгоняющий Дьявола / Экзорцист / The Exorcist (Уильям Фридкин / William Friedkin) [1973, США, ужасы, DVDRip] [Театральная Версия / Theatrical Cut] MVO (Варус Видео)

 
Автор Сообщение

Russian Mafia ®

Пол:

Стаж: 1 год 8 месяцев

Сообщений: 4252



Награды: 10 (Подробнее)

Mega Seeder 4 (Количество: 1) Mega Seeder 5 (Количество: 1) Mega Seeder 3 (Количество: 1)
Торрент-статистика

Создавать темы 08-Сен-2015 04:41

[Цитировать]

Изгоняющий Дьявола / Экзорцист / The Exorcist / Театральная Версия / Theatrical Cut
Год выпуска: 1973
Страна: США
Жанр: ужасы
Продолжительность: 01:58:56
Перевод: Профессиональный (многоголосый закадровый) - Варус Видео
Cубтитры: нет
Режиссер: Уильям Фридкин / William Friedkin
В ролях: Эллен Бёрстин (Chris MacNeil), Макс фон Сюдов (Father Merrin), Линда Блэр (Regan), Ли Дж. Кобб (Lt. William Kinderman), Джейсон Миллер (Father Karras), Китти Уинн (Sharon), Джек МакГоурэн (Burke Dennings), Реверенд Уильям О'Мэлли (Father Dyer), Бартон Хейман (Dr. Klein), Питер Мастерсон (Dr. Barringer - Clinic Director)-Мировая премьера: 19 июня 1973-Описание: В семью известной актрисы приходит беда — ее несовершеннолетняя дочь начинает вести себя неадекватным образом. Мать полагает, что это следствие ее личной трагедии, врачи подозревают психическое заболевание и не в силах поставить диагноз. Специально приглашенный священник подозревает, что девочка одержима дьяволом.-Доп. информация:-Данный перевод на трекере появляется впервые.
На русский язык фильм озвучен на студии Варус Видео.
Текст читали Юрий Саранцев, Владимир Конкин, Анна Каменкова и Татьяна Канаева.-Рейтинг

MPAA: R - Лицам до 17 лет обязательно присутствие взрослого.-Качество видео: DVDRip
Формат видео: AVI -> //SAMPLE//
Видео: XviD, 720x400 (16:9), 25.000 fps, 1580 kbps avg
Аудио:
1 - 48 khz, AC3 Dolby Digital, 2/0 (L,R) ch, ~192 kbps [Варус Видео] VHSRip

MediaInfo

General
Complete name : D:\Релизы на Трекере\Изгоняющий Дьявола (Варус Видео).avi
Format : AVI
Format/Info : Audio Video Interleave
File size : 1.48 GiB
Duration : 1h 58mn
Overall bit rate : 1 781 Kbps
Director : Rip by Edich2
Writing application : VirtualDubMod 1.5.10.2 (build 2540/release)
Writing library : VirtualDubMod build 2540/release
Video
ID : 0
Format : MPEG-4 Visual
Format profile : Advanced Simple@L5
Format settings, BVOP : 1
Format settings, QPel : No
Format settings, GMC : No warppoints
Format settings, Matrix : Custom
Codec ID : XVID
Codec ID/Hint : XviD
Duration : 1h 58mn
Bit rate : 1 580 Kbps
Width : 720 pixels
Height : 400 pixels
Display aspect ratio : 16:9
Frame rate : 25.000 fps
Color space : YUV
Chroma subsampling : 4:2:0
Bit depth : 8 bits
Scan type : Progressive
Compression mode : Lossy
Bits/(Pixel*Frame) : 0.219
Stream size : 1.31 GiB (89%)
Writing library : XviD 1.2.1 (UTC 2008-12-04)
Audio
ID : 1
Format : AC-3
Format/Info : Audio Coding 3
Mode extension : CM (complete main)
Format settings, Endianness : Big
Codec ID : 2000
Duration : 1h 58mn
Bit rate mode : Constant
Bit rate : 192 Kbps
Channel(s) : 2 channels
Channel positions : Front: L R
Sampling rate : 48.0 KHz
Bit depth : 16 bits
Compression mode : Lossy
Stream size : 163 MiB (11%)
Alignment : Split accross interleaves
Interleave, duration : 40 ms (1.00 video frame)
Interleave, preload duratio : 500 ms

Скриншот c названием фильма

Скриншоты

[Профиль] [ЛС]
Показать сообщения:    

Текущее время: Сегодня 18:35

Часовой пояс: GMT



Вы не можете начинать темы
Вы не можете отвечать на сообщения
Вы не можете редактировать свои сообщения
Вы не можете удалять свои сообщения
Вы не можете голосовать в опросах
Вы не можете прикреплять файлы к сообщениям
Вы не можете скачивать файлы