Изгоняющий дьявола: Приквел / Dominion: Prequel to the Exorcist (2005) BDRip 1080p от MediaClub | P

 
Автор Сообщение

Russian Mafia ®

Пол:

Стаж: 1 год 8 месяцев

Сообщений: 4256



Награды: 10 (Подробнее)

За внесенный вклад в развитие сайта (Количество: 1) Top Releaser 3 (Количество: 1) Top Releaser 2 (Количество: 1)
Торрент-статистика

Создавать темы 15-Окт-2016 13:18

[Цитировать]

Информация о фильме
Название: Изгоняющий дьявола: Приквел
Оригинальное название: Dominion: Prequel to the Exorcist
Год выхода: 2005
Жанр: Ужасы, мистика, триллер, драма
Режиссер: Пол Шредер
В ролях: Стеллан Скарсгард, Гэбриел Манн, Клара Беллар, Билли Кроуфорд, Ральф Браун, Исраель Адурамо, Эндрю Френч, Энтони Камерлинг, Джулиан Уэдэм, Эдди Осей, Иларио Биси-Педро, Найалл Рефой, Лоренцо Кампорезе, Берт Цезар, Марселло Сантони
О фильме:
Спустя три года после окончания Второй Мировой Войны, святой отец Ланкестер Мэррин оказывается на археологических раскопках, развернувшихся на территориях в восточной Африке, принадлежащих Британии. Здесь возглавляемая им группа исследователей обнаруживает Византийскую церковь, на удивление очень хорошо сохранившуюся несмотря на прошедшие века. В глубине церкви Мэррин и его соратники находят древний склеп сохранивший в себе следы проводимых здесь некогда сатанинских ритуалов и жестоких жертвоприношений. Местные жители пытаются убедить археологов в том, что вскрыв церковь, они освободили ужасного демона. В это верит только молодой священник отец Фрэнсис, который подозревает, что вышедший на волю мстительный дух вселился в маленького мальчика. Вскоре это становится очевидным и для Мэррина, который решает во чтобы то ни стало изгнать зло из ребенка, для чего ему приходится снова обратиться к Богу, веру в которого он утерял после пережитых им ужасов Второй Мировой Войны…

Страна: США
Студия: Morgan Creek Productions
Продолжительность: 01:55:55
Перевод: Профессиональный многоголосый закадровый
Файл
Кодек: h.264
Качество: BDRip 1080p
Видео: MPEG-4 AVC, 11555 Кбит/с, 1920x1080, 23.976 кадр/с
Звук:
Русский (AC3, 2 ch, 192 Кбит/с) / Профессиональный многоголосый (НТВ)
Английский (DTS, 6 ch, 1509 Кбит/с)
Субтитры: Английские
Семпл

О релизе

Автор релиза - Silverok, За Bly-ray спасибо bbcby
Субтитры: S_TEXT/UTF8 (SRT) - Английские
Сохранены оригинальные главы как на Blu-ray

MI

x264 [info]: frame I:42 Avg QP:14.96 size:215878
x264 [info]: frame P:559 Avg QP:16.76 size:121695
x264 [info]: frame B:1949 Avg QP:18.47 size: 39265
General
Unique ID : 186471689330225716321468412005178171473 (0x8C49241A4A45FB9FA2430EC606106051)
Complete name : D:uTorrentIzgonyjustsiy.djavola_prikvel.2005.BDRip.1080p.MediaClub.mkv
Format : Matroska
Format version : Version 4 / Version 2
File size : 10.7 GiB
Duration : 1 h 55 min
Overall bit rate : 13.3 Mb/s
Encoded date : UTC 2016-10-15 10:40:51
Writing application : mkvmerge v9.4.2 ('So High') 64bit
Writing library : libebml v1.3.4 + libmatroska v1.4.5
Video
ID : 1
Format : AVC
Format/Info : Advanced Video Codec
Format profile : High@L4.1
Format settings, CABAC : Yes
Format settings, ReFrames : 4 frames
Codec ID : V_MPEG4/ISO/AVC
Duration : 1 h 55 min
Bit rate : 11.6 Mb/s
Width : 1 920 pixels
Height : 1 080 pixels
Display aspect ratio : 16:9
Frame rate mode : Constant
Frame rate : 23.976 (24000/1001) FPS
Color space : YUV
Chroma subsampling : 4:2:0
Bit depth : 8 bits
Scan type : Progressive
Bits/(Pixel*Frame) : 0.232
Stream size : 9.14 GiB (85%)
Title : BDRip by Silverok
Writing library : x264 core 148 r2638 7599210
Encoding settings : cabac=1 / ref=4 / deblock=1:-3:-3 / analyse=0x3:0x113 / me=umh / subme=11 / psy=1 / psy_rd=1.00:0.10 / mixed_ref=1 / me_range=48 / chroma_me=1 / trellis=2 / 8x8dct=1 / cqm=0 / deadzone=21,11 / fast_pskip=0 / chroma_qp_offset=-3 / threads=12 / lookahead_threads=3 / sliced_threads=0 / nr=0 / decimate=0 / interlaced=0 / bluray_compat=0 / constrained_intra=0 / bframes=14 / b_pyramid=2 / b_adapt=2 / b_bias=0 / direct=3 / weightb=1 / open_gop=0 / weightp=2 / keyint=240 / keyint_min=24 / scenecut=40 / intra_refresh=0 / rc_lookahead=40 / rc=2pass / mbtree=0 / bitrate=11555 / ratetol=1.0 / qcomp=0.60 / qpmin=0 / qpmax=69 / qpstep=4 / cplxblur=20.0 / qblur=0.5 / vbv_maxrate=62500 / vbv_bufsize=78125 / nal_hrd=none / filler=0 / ip_ratio=1.40 / pb_ratio=1.30 / aq=1:1.00
Default : Yes
Forced : No
Audio #1
ID : 2
Format : AC-3
Format/Info : Audio Coding 3
Mode extension : CM (complete main)
Format settings, Endianness : Big
Codec ID : A_AC3
Duration : 1 h 55 min
Bit rate mode : Constant
Bit rate : 192 kb/s
Channel(s) : 2 channels
Channel positions : Front: L R
Sampling rate : 48.0 kHz
Frame rate : 31.250 FPS (1536 spf)
Compression mode : Lossy
Stream size : 159 MiB (1%)
Title : Многоголосый закадровый (НТВ)
Language : Russian
Default : Yes
Forced : No
Audio #2
ID : 3
Format : DTS
Format/Info : Digital Theater Systems
Mode : 16
Format settings, Endianness : Big
Codec ID : A_DTS
Duration : 1 h 55 min
Bit rate mode : Constant
Bit rate : 1 509 kb/s
Channel(s) : 6 channels
Channel positions : Front: L C R, Side: L R, LFE
Sampling rate : 48.0 kHz
Frame rate : 93.750 FPS (512 spf)
Bit depth : 16 bits
Compression mode : Lossy
Stream size : 1.22 GiB (11%)
Language : English
Default : No
Forced : No
Text
ID : 4
Format : UTF-8
Codec ID : S_TEXT/UTF8
Codec ID/Info : UTF-8 Plain Text
Language : English
Default : Yes
Forced : No
Menu
00:00:00.000 : en:
00:05:27.827 : en:
00:09:27.024 : en:
00:12:38.257 : en:
00:16:59.309 : en:
00:23:36.039 : en:
00:26:59.409 : en:
00:32:08.009 : en:
00:36:10.543 : en:
00:38:28.723 : en:
00:40:18.874 : en:
00:44:27.665 : en:
00:46:22.446 : en:
00:49:30.759 : en:
00:55:00.714 : en:
00:59:15.510 : en:
01:01:59.549 : en:
01:06:32.363 : en:
01:11:55.227 : en:
01:15:00.871 : en:
01:23:19.828 : en:
01:27:08.139 : en:
01:32:43.516 : en:
01:34:38.381 : en:
01:40:24.184 : en:
01:43:09.057 : en:
01:47:54.968 : en:
01:51:39.859 : en:
01:55:53.071 : en:

Скриншоты

[Профиль] [ЛС]
Показать сообщения:    

Текущее время: Сегодня 16:34

Часовой пояс: GMT



Вы не можете начинать темы
Вы не можете отвечать на сообщения
Вы не можете редактировать свои сообщения
Вы не можете удалять свои сообщения
Вы не можете голосовать в опросах
Вы не можете прикреплять файлы к сообщениям
Вы не можете скачивать файлы