Изгой / Cast Away (2000) BDRip 1080p | D, P

 
Автор Сообщение

Russian Mafia ®

Пол:

Стаж: 1 год 8 месяцев

Сообщений: 4257



Награды: 10 (Подробнее)

Top Releaser 3 (Количество: 1) Mega Seeder 3 (Количество: 1) Mega Seeder 2 (Количество: 1)
Торрент-статистика

Создавать темы 08-Сен-2015 10:35

[Цитировать]

Информация о фильме
Название: Изгой
Оригинальное название: Cast Away
Год выхода: 2000
Жанр: Драма, Приключения
Режиссер: Роберт Земекис
В ролях: Том Хэнкс, Хелен Хант, Кристофер Нот, Ник Сирси, Дэвид А. Брукс
О фильме:
Герой этой картины, Чак Нолан, - сотрудник всемирно известной службы доставки «Федерал Экспресс». Чак - скрупулезный практик и неисправимый педант. Жизнь Нолана, высокопоставленного инспектора международных отделений "ФедЕкс" расписана по минутам. И этих драгоценных минут катастрофически не хватает ни на личную жизнь, ни на любимую женщину... Однако, безжалостная судьба заставила Нолана иначе взглянуть на отпущенное ему время... Самолет, на котором путешествует Чак, падает в океан. Инженер, единственный, кому посчастливилось остаться в живых, попадает на необитаемый остров. Здесь Нолану предстоит провести мучительно долгие годы в жестокой битве за выживание...

Выпущено: США / 20th Century Fox Film Corporation, DreamWorks SKG, ImageMovers, Playtone
Продолжительность: 02:23:46
Перевод: Дублированный, Профессиональный многоголосый
Файл
Кодек: MPEG-4 AVC
Качество: BDRip 1080p
Видео: 1920x1036, 23.976 fps, 9180 kbps
Звук:
Russian: AC3, 448 Kbps (6 ch) Дублированный
Russian: AC3, 448 Kbps (6 ch) Профессиональный многоголосый
English: AC3, 448 kb/s (6 ch) Original
Субтитры: English

MediaInfo & x264

Общее
Уникальный идентификатор : 243074511489543805998022779966516332581 (0xB6DE72B2B77CCF17BA8571DF482B8825)
Полное имя : Cast. Away.2000.х264.BDRip.1080p.mkv
Формат : Matroska
Версия формата : Version 2
Размер файла : 11,2 Гбайт
Продолжительность : 2 ч. 29 м.
Общий поток : 10,7 Мбит/сек
Название фильма : ☭WIDDER☭
Дата кодирования : UTC 2013-02-13 12:03:08
Программа кодирования : mkvmerge v4.5.0 ('Speed of Light') сборка от Feb 1 2011 02:10:32
Библиотека кодирования : libebml v1.2.0 + libmatroska v1.1.0
Видео
Идентификатор : 1
Формат : AVC
Формат/Информация : Advanced Video Codec
Профиль формата : High@L4.1
Параметр CABAC формата : Да
Параметр ReFrames формата : 4 кадра
Идентификатор кодека : V_MPEG4/ISO/AVC
Продолжительность : 2 ч. 29 м.
Битрейт : 9180 Кбит/сек
Номинальный битрейт : 9838 Кбит/сек
Ширина : 1920 пикселей
Высота : 1036 пикселей
Соотношение сторон : 1,85:1
Режим частоты кадров : Постоянный
Частота кадров : 23,976 кадра/сек
Цветовое пространство : YUV
Субдискретизация насыщенности : 4:2:0
Битовая глубина : 8 бит
Тип развёртки : Прогрессивная
Бит/(Пиксели*Кадры) : 0.192
Размер потока : 9,61 Гбайт (85%)
Заголовок : Изгой / Cast Away (2000)
Библиотека кодирования : x264 core 129 r2245 bc13772
Настройки программы : cabac=1 / ref=4 / deblock=1:-3:-3 / analyse=0x3:0x133 / me=umh / subme=11 / psy=1 / psy_rd=1.00:0.00 / mixed_ref=1 / me_range=48 / chroma_me=1 / trellis=2 / 8x8dct=1 / cqm=0 / deadzone=21,11 / fast_pskip=0 / chroma_qp_offset=-2 / threads=16 / lookahead_threads=2 / sliced_threads=0 / nr=0 / decimate=1 / interlaced=0 / bluray_compat=0 / constrained_intra=0 / bframes=6 / b_pyramid=2 / b_adapt=2 / b_bias=0 / direct=3 / weightb=1 / open_gop=0 / weightp=2 / keyint=240 / keyint_min=23 / scenecut=40 / intra_refresh=0 / rc=2pass / mbtree=0 / bitrate=9838 / ratetol=1.0 / qcomp=0.60 / qpmin=0 / qpmax=69 / qpstep=4 / cplxblur=20.0 / qblur=0.5 / ip_ratio=1.40 / pb_ratio=1.30 / aq=2:0.80
Язык : English
Default : Да
Forced : Нет
Аудио #1
Идентификатор : 2
Формат : AC-3
Формат/Информация : Audio Coding 3
Расширение режима : CM (complete main)
Параметр Endianness формата : Big
Идентификатор кодека : A_AC3
Продолжительность : 2 ч. 29 м.
Вид битрейта : Постоянный
Битрейт : 448 Кбит/сек
Каналы : 6 каналов
Расположение каналов : Front: L C R, Side: L R, LFE
Частота : 48,0 КГц
Битовая глубина : 16 бит
Метод сжатия : С потерями
Размер потока : 480 Мбайт (4%)
Заголовок : AC3, 448 Kbps (6 ch) Дублированный
Язык : Russian
Default : Да
Forced : Нет
Аудио #2
Идентификатор : 3
Формат : AC-3
Формат/Информация : Audio Coding 3
Расширение режима : CM (complete main)
Параметр Endianness формата : Big
Идентификатор кодека : A_AC3
Продолжительность : 2 ч. 29 м.
Вид битрейта : Постоянный
Битрейт : 448 Кбит/сек
Каналы : 6 каналов
Расположение каналов : Front: L C R, Side: L R, LFE
Частота : 48,0 КГц
Битовая глубина : 16 бит
Метод сжатия : С потерями
Размер потока : 480 Мбайт (4%)
Заголовок : AC3, 448 Kbps (6 ch) Профессиональный многоголосый
Язык : Russian
Default : Нет
Forced : Нет
Аудио #3
Идентификатор : 4
Формат : AC-3
Формат/Информация : Audio Coding 3
Расширение режима : CM (complete main)
Параметр Endianness формата : Big
Идентификатор кодека : A_AC3
Продолжительность : 2 ч. 29 м.
Вид битрейта : Постоянный
Битрейт : 448 Кбит/сек
Каналы : 6 каналов
Расположение каналов : Front: L C R, Side: L R, LFE
Частота : 48,0 КГц
Битовая глубина : 16 бит
Метод сжатия : С потерями
Размер потока : 480 Мбайт (4%)
Заголовок : AC3, 448 kb/s (6 ch) Original
Язык : English
Default : Нет
Forced : Нет
Текст
Идентификатор : 5
Формат : PGS
Режим смешивания : zlib
Идентификатор кодека : S_HDMV/PGS
Идентификатор кодека/Информация : The same subtitle format used on BDs/HD-DVDs
Язык : English
Default : Нет
Forced : Нет
Меню
00:00:00.000 : :Chapter 01
00:05:00.000 : :Chapter 02
00:10:00.000 : :Chapter 03
00:15:00.000 : :Chapter 04
00:20:00.000 : :Chapter 05
00:25:00.000 : :Chapter 06
00:30:00.000 : :Chapter 07
00:35:00.000 : :Chapter 08
00:40:00.000 : :Chapter 09
00:45:00.000 : :Chapter 10
00:50:00.000 : :Chapter 11
00:55:00.000 : :Chapter 12
01:00:00.000 : :Chapter 13
01:05:00.000 : :Chapter 14
01:10:00.000 : :Chapter 15
01:15:00.000 : :Chapter 16
01:20:00.000 : :Chapter 17
01:25:00.000 : :Chapter 18
01:30:00.000 : :Chapter 19
01:35:00.000 : :Chapter 20
01:40:00.000 : :Chapter 21
01:45:00.000 : :Chapter 22
01:50:00.000 : :Chapter 23
01:55:00.000 : :Chapter 24
02:00:00.000 : :Chapter 25
02:05:00.000 : :Chapter 26
02:10:00.000 : :Chapter 27
02:15:00.000 : :Chapter 28
02:20:00.000 : :Chapter 29
____________________________________________
x264 [info]: frame I:1119 Avg QP:16.41 size:182541
x264 [info]: frame P:48490 Avg QP:18.49 size: 81378
x264 [info]: frame B:157223 Avg QP:21.20 size: 41012
[Профиль] [ЛС]
Показать сообщения:    

Текущее время: Сегодня 08:15

Часовой пояс: GMT



Вы не можете начинать темы
Вы не можете отвечать на сообщения
Вы не можете редактировать свои сообщения
Вы не можете удалять свои сообщения
Вы не можете голосовать в опросах
Вы не можете прикреплять файлы к сообщениям
Вы не можете скачивать файлы