Изгнание / Quvg\'in (Зебо Наврузова / Zebo Navruzova) [2010, Узбекистан, драма, мелодрама, криминал, DVB] MVO

 
Автор Сообщение

painkiller ®

Стаж: 2 года 3 месяца

Сообщений: 582



Награды: Нет

Торрент-статистика

Создавать темы 15-Авг-2014 10:18

[Цитировать]

Изгнание / Quvg'in
Страна: Узбекистан
Жанр: драма, мелодрама, криминал
Год выпуска: 2010
Продолжительность: 01:37:03
Перевод: Профессиональный (многоголосый закадровый)
Cубтитры: нет
Оригинальная аудиодорожка: нет
Режиссер: Зебо Наврузова / Zebo Navruzova
В ролях: Шохруххон, Нилюфар Усманова, Джалил Мавлянов, Улугбек Туганов, Бекзод Тоджиев, Насрулло Нуров,
Описание: Криминальная драма. Главный герой выходит из тюрьмы. На свободе его ожидают неоплаченные долги.
Доп. информация: Запись потока *.ts со спутника ABS-1, ремукс в *.mpg программой VideoReDo.
Сэмпл: http://multi-up.com/947775
Качество видео: DVB
Формат видео: MPEG-PS
Видео: MPEG Video, 720(768)x576 (4:3), 25,000 кадров/сек, 3 500 Кбит/сек
Аудио: MPEG Audio, 48,0 КГц, 192 Кбит/сек, 2 канала

MediaInfo

General
Complete name : D:\Torrent\Изгнание (MIR).mpg
Format : MPEG-PS
File size : 2.54 GiB
Duration : 1h 37mn
Overall bit rate mode : Variable
Overall bit rate : 3 742 Kbps
Video
ID : 224 (0xE0)
Format : MPEG Video
Format version : Version 2
Format profile : Main@Main
Format settings, BVOP : Yes
Format settings, Matrix : Custom
Format settings, GOP : M=1, N=17
Duration : 1h 37mn
Bit rate mode : Variable
Bit rate : 3 500 Kbps
Width : 720 pixels
Height : 576 pixels
Display aspect ratio : 4:3
Frame rate : 25.000 fps
Standard : PAL
Color space : YUV
Chroma subsampling : 4:2:0
Bit depth : 8 bits
Scan type : Interlaced
Scan order : Top Field First
Compression mode : Lossy
Bits/(Pixel*Frame) : 0.338
Stream size : 2.36 GiB (93%)
Audio
ID : 192 (0xC0)
Format : MPEG Audio
Format version : Version 1
Format profile : Layer 2
Duration : 1h 37mn
Bit rate mode : Constant
Bit rate : 192 Kbps
Channel(s) : 2 channels
Sampling rate : 48.0 KHz
Compression mode : Lossy
Stream size : 133 MiB (5%)

Скриншот c названием фильма

Скриншоты

[Профиль] [ЛС]

Создавать темы 06-Авг-2015 23:10 (спустя 11 месяцев 22 дня)

Топик был перенесен из форума Фильмы до 2014 года в форум Фильмы до 2012 года
sergej644
 

Создавать темы 12-Июн-2016 07:54 (спустя 1 год 9 месяцев)

Топик был перенесен из форума Фильмы 2011 года в форум Фильмы 2010 года
Russian Mafia
 
Кто просматривает тему:

Форум Тема Автор Размер
BBC BBC: Стюарты в изгнании / The Stuarts in Exile [серии 1-2 из 2] (Russell Leven) [2015 г., Документальный, история, исследования, HDTVRip-AVC 720p] skorpionN 3.62 GB
Фильмы (HD DVD, Blu-ray и BDRemux) Rakuen Tsuihou | Expelled from Paradise | Изгнанные из рая [2014, MV] BDrip 1080p raw KottoSoft 12.23 GB
Фильмы 2015 года В изгнании / Outcast (2014) HDRip | Лицензия BOSS 1.46 GB
Фильмы 2014 года В изгнании / Outcast (Ник Пауэлл) [2014 г., боевик, WEB-DLRip] BOSS 1.46 GB
Зарубежные В изгнании в 3Д / Outcast 3D (Ник Пауэлл / Nick Powell) [2014, Боевик, приключения, BDremux, 1080p] BD3D TorrentFilm 18.03 GB
Зарубежные В изгнании в 3Д / Outcast 3D (Ник Пауэлл / Nick Powell) [2014, Боевик, Приключения, Драма, BDrip, 1080p] OverUnder / Вертикальная стереопара TorrentFilm 12.01 GB
Зарубежные В изгнании в 3Д / Outcast 3D (Ник Пауэлл / Nick Powell) [2014, Боевик, Приключения, Драма, BDrip-AVC] DVO, Half OverUnder / Вертикальная анаморфная стереопара TorrentFilm 9.58 GB
Зарубежные В изгнании в 3Д / Outcast 3D (Ник Пауэлл) [2014, боевик, приключения, Blu-Ray Disc, (Custom) 1080p] BD3D TorrentFilm 23.21 GB
Показать сообщения:    

Текущее время: Сегодня 15:44

Часовой пояс: GMT



Вы не можете начинать темы
Вы не можете отвечать на сообщения
Вы не можете редактировать свои сообщения
Вы не можете удалять свои сообщения
Вы не можете голосовать в опросах
Вы не можете прикреплять файлы к сообщениям
Вы не можете скачивать файлы