Извне / From Beyond (1986) BDRip 1080p | P, A | Режиссерская версия

 
Автор Сообщение

Russian Mafia ®

Пол:

Стаж: 1 год 8 месяцев

Сообщений: 4247



Награды: 10 (Подробнее)

Top Releaser 5 (Количество: 1) Mega Seeder 5 (Количество: 1) Top Releaser 3 (Количество: 1)
Торрент-статистика

Создавать темы 15-Апр-2016 06:11

[Цитировать]

Информация о фильме
Название: Извне
Оригинальное название: From Beyond
Год выпуска: 1986
Страна: США
Жанр: Ужасы, фантастика
Продолжительность: 01:25:36
Перевод: Профессиональный (многоголосый закадровый) ТВ3
Перевод: Авторский (одноголосый, закадровый) А. Гаврилов
Перевод: Авторский (одноголосый закадровый) П. Карцев
Перевод: Авторский (одноголосый закадровый) М. Иванов
Перевод: Авторский (одноголосый закадровый) К. Филонов
Субтитры: Русские, английские
Режиссер: Стюарт Гордон
В ролях: Джеффри Комбс, Барбара Крэмптон, Кен Фори, Тед Сорел, Кэролин Перди-Гордон, Банни Саммерс, Брюс МакГуайр, Дел Рассел, Дэйл Виатт
Описание: Гениальный физик Эдвард Преториус и его ассистент Кроуфорд Тиллингаст создают таинственный прибор. Резонатор! Резонатор стимулирует, находящуюся в мозге, мало изученную шишковидную железу – эпифиз. Будучи активизированным, эпифиз, который ещё средневековые ученые считали третьим глазом человека, позволяет увидеть то, что обычными органами зрения увидеть невозможно! Но, к сожалению, первое же испытание резонатора приводит к кошмарным результатам: Тиллингаст попадает в сумасшедший дом, а Преториуса находят обезглавленным на полу собственной лаборатории.
Тиллингаста начинают обвинять в убийстве, но он с маниакальным упорством твердит, что голову его шефа откусило «Оно» - отвратительное существо, пробравшееся в их лабораторию с того света…
«Извне» (известен также под названием «С того света») — кинофильм 1986 года режиссёра Стюарта Гордона. Поставлен по мотивам рассказа Говарда Филлипса Лавкрафта «From Beyond», 1920 (известен под русским названием «Из глубин мироздания»).
Награды и номинации:
1986 — три приза Каталонского кинофестиваля в Ситжесе: лучший оригинальный саундтрек (Ричард Бэнд), лучшие спецэффекты (Джон Нолин, Энтони Даблин), Приз Каталонской ассоциации критиков и сценаристов (Стюарт Гордон)
1987 — три номинации на премию «Сатурн»: лучший фильм ужасов, лучшая актриса (Барбара Крэмптон), лучший грим

Файл
Качество: BDRip 1080p
Формат: MKV
Видео кодек: H264
Аудио кодек: AC3
Видео: MPEG4 Video (H264), 1920x1080, 23.976fps, 11.0 Mbps
Аудио #1: Русский, Dolby AC3, 48000 Hz, 2 ch, 192 kbps - многоголосый, ТВ3
Аудио #2: Русский, Dolby AC3, 48000 Hz, 2 ch, 192 kbps - одноголосый, А. Гаврилов
Аудио #3: Русский, Dolby AC3, 48000 Hz, 2 ch, 192 kbps - одноголосый, П. Карцев
Аудио #4: Русский, Dolby AC3, 48000 Hz, 2 ch, 192 kbps - одноголосый, М. Иванов
Аудио #5: Русский, Dolby AC3, 48000 Hz, 2 ch, 192 kbps - одноголосый, К. Филонов
Аудио #6: Английский, Dolby AC3, 48000 Hz, 4 ch, 448 kbps
Формат субтитров: Softsub (SRT)
Сэмпл

MediaInfo:

General
Unique ID : 189075382734834901797932279690686693738 (0x8E3E98194472E31781D5F13A5025016A)
Complete name : F:DVDRip1986 Извне1986 Извне.mkv
Format : Matroska
Format version : Version 4 / Version 2
File size : 7.41 GiB
Duration : 1h 25mn
Overall bit rate : 12.4 Mbps
Movie name : 1986 Извне / renta23
Encoded date : UTC 2016-04-15 05:37:49
Writing application : mkvmerge v8.3.0 ('Over the Horizon') 64bit
Writing library : libebml v1.3.1 + libmatroska v1.4.2
Video
ID : 1
Format : AVC
Format/Info : Advanced Video Codec
Format profile : High@L4.1
Format settings, CABAC : Yes
Format settings, ReFrames : 4 frames
Codec ID : V_MPEG4/ISO/AVC
Duration : 1h 25mn
Bit rate : 11.0 Mbps
Width : 1 920 pixels
Height : 1 040 pixels
Display aspect ratio : 1.85:1
Frame rate mode : Constant
Frame rate : 23.976 (24000/1001) fps
Color space : YUV
Chroma subsampling : 4:2:0
Bit depth : 8 bits
Scan type : Progressive
Bits/(Pixel*Frame) : 0.230
Stream size : 6.57 GiB (89%)
Title : 1986 Извне
Writing library : x264 core 146 r2538 121396c
Encoding settings : cabac=1 / ref=4 / deblock=1:-1:-1 / analyse=0x3:0x133 / me=umh / subme=11 / psy=1 / psy_rd=1.07:0.23 / mixed_ref=1 / me_range=32 / chroma_me=1 / trellis=2 / 8x8dct=1 / cqm=0 / deadzone=21,11 / fast_pskip=0 / chroma_qp_offset=-3 / threads=12 / lookahead_threads=3 / sliced_threads=0 / nr=0 / decimate=1 / interlaced=0 / bluray_compat=0 / constrained_intra=0 / bframes=12 / b_pyramid=2 / b_adapt=2 / b_bias=0 / direct=3 / weightb=1 / open_gop=0 / weightp=2 / keyint=250 / keyint_min=23 / scenecut=40 / intra_refresh=0 / rc=2pass / mbtree=0 / bitrate=11000 / ratetol=1.0 / qcomp=0.60 / qpmin=0 / qpmax=69 / qpstep=4 / cplxblur=20.0 / qblur=0.5 / ip_ratio=1.40 / pb_ratio=1.30 / aq=2:1.00
Language : English
Default : Yes
Forced : No
Audio #1
ID : 2
Format : AC-3
Format/Info : Audio Coding 3
Mode extension : CM (complete main)
Format settings, Endianness : Big
Codec ID : A_AC3
Duration : 1h 25mn
Bit rate mode : Constant
Bit rate : 192 Kbps
Channel(s) : 2 channels
Channel positions : Front: L R
Sampling rate : 48.0 KHz
Frame rate : 31.250 fps (1536 spf)
Compression mode : Lossy
Stream size : 117 MiB (2%)
Title : Многоголосый, ТВ3
Language : Russian
Default : Yes
Forced : No
Audio #2
ID : 3
Format : AC-3
Format/Info : Audio Coding 3
Mode extension : CM (complete main)
Format settings, Endianness : Big
Codec ID : A_AC3
Duration : 1h 25mn
Bit rate mode : Constant
Bit rate : 192 Kbps
Channel(s) : 2 channels
Channel positions : Front: L R
Sampling rate : 48.0 KHz
Frame rate : 31.250 fps (1536 spf)
Compression mode : Lossy
Stream size : 117 MiB (2%)
Title : Одноголосый, А. Гаврилов
Language : Russian
Default : No
Forced : No
Audio #3
ID : 4
Format : AC-3
Format/Info : Audio Coding 3
Mode extension : CM (complete main)
Format settings, Endianness : Big
Codec ID : A_AC3
Duration : 1h 25mn
Bit rate mode : Constant
Bit rate : 192 Kbps
Channel(s) : 2 channels
Channel positions : Front: L R
Sampling rate : 48.0 KHz
Frame rate : 31.250 fps (1536 spf)
Compression mode : Lossy
Stream size : 117 MiB (2%)
Title : Одноголосый, П. Карцев
Language : Russian
Default : No
Forced : No
Audio #4
ID : 5
Format : AC-3
Format/Info : Audio Coding 3
Mode extension : CM (complete main)
Format settings, Endianness : Big
Codec ID : A_AC3
Duration : 1h 25mn
Bit rate mode : Constant
Bit rate : 192 Kbps
Channel(s) : 2 channels
Channel positions : Front: L R
Sampling rate : 48.0 KHz
Frame rate : 31.250 fps (1536 spf)
Compression mode : Lossy
Stream size : 117 MiB (2%)
Title : Одноголосый, К. Филонов
Language : Russian
Default : No
Forced : No
Audio #5
ID : 6
Format : AC-3
Format/Info : Audio Coding 3
Mode extension : CM (complete main)
Format settings, Endianness : Big
Codec ID : A_AC3
Duration : 1h 25mn
Bit rate mode : Constant
Bit rate : 192 Kbps
Channel(s) : 2 channels
Channel positions : Front: L R
Sampling rate : 48.0 KHz
Frame rate : 31.250 fps (1536 spf)
Compression mode : Lossy
Stream size : 117 MiB (2%)
Title : Одноголосый, М. Иванов
Language : Russian
Default : No
Forced : No
Audio #6
ID : 7
Format : AC-3
Format/Info : Audio Coding 3
Mode extension : CM (complete main)
Format settings, Endianness : Big
Codec ID : A_AC3
Duration : 1h 25mn
Bit rate mode : Constant
Bit rate : 448 Kbps
Channel(s) : 4 channels
Channel positions : Front: L R, Side: L R
Sampling rate : 48.0 KHz
Frame rate : 31.250 fps (1536 spf)
Compression mode : Lossy
Stream size : 274 MiB (4%)
Language : English
Default : No
Forced : No
Text #1
ID : 8
Format : UTF-8
Codec ID : S_TEXT/UTF8
Codec ID/Info : UTF-8 Plain Text
Duration : 1h 21mn
Bit rate : 51 bps
Count of elements : 608
Stream size : 30.9 KiB (0%)
Language : Russian
Default : No
Forced : No
Text #2
ID : 9
Format : UTF-8
Codec ID : S_TEXT/UTF8
Codec ID/Info : UTF-8 Plain Text
Duration : 1h 20mn
Bit rate : 31 bps
Count of elements : 690
Stream size : 18.8 KiB (0%)
Language : English
Default : No
Forced : No
Menu
00:00:00.000 : en:00:00:00.000
00:04:37.694 : en:00:04:37.694
00:09:45.835 : en:00:09:45.835
00:15:17.125 : en:00:15:17.125
00:19:35.841 : en:00:19:35.841
00:27:35.946 : en:00:27:35.946
00:35:51.066 : en:00:35:51.066
00:40:00.023 : en:00:40:00.023
00:44:22.660 : en:00:44:22.660
00:47:30.890 : en:00:47:30.890
00:54:57.294 : en:00:54:57.294
01:00:59.155 : en:01:00:59.155
01:05:52.282 : en:01:05:52.282
01:12:11.494 : en:01:12:11.494
01:15:13.801 : en:01:15:13.801
01:18:09.935 : en:01:18:09.935
01:22:04.086 : en:01:22:04.086

[Профиль] [ЛС]

mihails

Стаж: 10 месяцев 26 дней

Сообщений: 5



Награды: Нет

Торрент-статистика

Создавать темы 15-Апр-2016 14:48 (спустя 8 часов)

[Цитировать]

Вот это настоящий ужастик.Был ,в своё время на кассете,сейчас есть на диске в коллекции...Спасибо,Russian Mafia.
[Профиль] [ЛС]

Russian Mafia ®

Пол:

Стаж: 1 год 8 месяцев

Сообщений: 4247



Награды: 10 (Подробнее)

Top Releaser 4 (Количество: 1) Mega Seeder 2 (Количество: 1) Mega Seeder 5 (Количество: 1)
Торрент-статистика

Создавать темы 16-Апр-2016 03:31 (спустя 12 часов)

[Цитировать]

mihails, не за что. рад стараться
[Профиль] [ЛС]
Показать сообщения:    

Текущее время: Сегодня 04:16

Часовой пояс: GMT



Вы не можете начинать темы
Вы не можете отвечать на сообщения
Вы не можете редактировать свои сообщения
Вы не можете удалять свои сообщения
Вы не можете голосовать в опросах
Вы не можете прикреплять файлы к сообщениям
Вы не можете скачивать файлы