Избави нас от лукавого / Deliver Us from Evil (2014) DVD5

 
Автор Сообщение

BOSS ®

Пол:

Стаж: 2 года 1 месяц

Сообщений: 3712

Откуда: ODESSA



Награды: 20 (Подробнее)

Top Releaser 3 (Количество: 1) Top Seeder 5 (Количество: 1) Top Keeper 1 (Количество: 1)
Торрент-статистика

Создавать темы 28-Янв-2016 21:08

[Цитировать]

--Информация о фильме
Название: Избави нас от лукавого
Оригинальное название: Deliver Us from Evil
Год выхода: 2014
Жанр: ужасы, триллер, детектив
Режиссер: Скотт Дерриксон
В ролях: Шон Харрис, Эрик Бана, Эдгар Рамирес, Оливия Манн, Крис Кой, Дориан Миссик, Джоэл МакХэйл, Майк Хьюстон, Лулу Уилсон, Оливия Хортон-О фильме:
Полиция Нью-Йорка расследует серию тревожных и необъяснимых преступлений. Один из офицеров обращается за помощью к специалисту по экзорцизму, чтобы избавить город от дьявольской напасти.- -Страна: США
Студия: Jerry Bruckheimer Films, Screen Gems
Продолжительность: 114 мин. / 01:54
Перевод: полное дублирование-Файл
Кодек: MPEG2
Качество: DVD5 (сжатый)
Видео: PAL 16:9 (720x576@1024x576) VBR 4593 Kbps, 25.000 fps
Аудио 1: Dolby AC3, 6 ch, 48.0 KHz, 448 Kbps (английский)
Аудио 2: Dolby AC3, 6 ch, 48.0 KHz, 384 Kbps (русский)
Субтитры: русские, английские, арабские, хорватские, иврит, венгерские, исландские, словенские, литовские, польские--

Процесс изготовления диска

Исходник: Избави нас от лукавого / Deliver Us from Evil (2014) DVD9 | Лицензия
Удалены: доп. материалы, предупреждающие надписи, венгерская, польская, украинская и английская (AC3 2.0) звуковые дорожки (в меню кнопки затерты). Команды диска переписаны заново, оставлен один VTS.
Видео сжато на 12,2%
Меню: статичное, недействующие кнопки затерты и закрыты.
Обработка и сжатие: DVD ReMake Pro + DVD Rebuilder + CCE SP2 [7 проходов] + Работа с меню (Adobe PhotoShop и MuxMan).
Автор релиза: J9-1000

MediaInfo

Общее
Полное имя : D:Deliver Us from Evil (2014) DVD5VIDEO_TSVTS_01_1.VOB
Формат : MPEG-PS
Размер файла : 1024 Мбайт
Продолжительность : 25 м.
Режим общего битрейта : Переменный
Общий поток : 5536 Кбит/сек
Видео
Идентификатор : 224 (0xE0)
Формат : MPEG Video
Версия формата : Version 2
Профиль формата : Main@Main
Параметр BVOP формата : Да
Параметр матрицы формата : Выборочная
Параметр GOP формата : Variable
Продолжительность : 25 м.
Вид битрейта : Переменный
Битрейт : 4593 Кбит/сек
Ширина : 720 пикселей
Высота : 576 пикселей
Соотношение сторон : 16:9
Частота кадров : 25,000 кадров/сек
Стандарт вещания : PAL
Цветовое пространство : YUV
Субдискретизация насыщенности : 4:2:0
Битовая глубина : 8 бит
Метод сжатия : С потерями
Бит/(Пиксели*Кадры) : 0.443
Временной код первого кадра : 00:00:00:00
Оригинал временного кода : Group of pictures header
Размер потока : 850 Мбайт (83%)
Аудио #1
Идентификатор : 189 (0xBD)-128 (0x80)
Формат : AC-3
Формат/Информация : Audio Coding 3
Расширение режима : CM (complete main)
Параметр Endianness формата : Big
Режим смешивания : DVD-Video
Продолжительность : 25 м.
Вид битрейта : Постоянный
Битрейт : 448 Кбит/сек
Каналы : 6 каналов
Расположение каналов : Front: L C R, Side: L R, LFE
Частота : 48,0 КГц
Частота кадров : 31,250 кадров/сек (1536 spf)
Метод сжатия : С потерями
Размер потока : 82,9 Мбайт (8%)
Аудио #2
Идентификатор : 189 (0xBD)-131 (0x83)
Формат : AC-3
Формат/Информация : Audio Coding 3
Расширение режима : CM (complete main)
Параметр Endianness формата : Big
Режим смешивания : DVD-Video
Продолжительность : 25 м.
Вид битрейта : Постоянный
Битрейт : 384 Кбит/сек
Каналы : 6 каналов
Расположение каналов : Front: L C R, Side: L R, LFE
Частота : 48,0 КГц
Частота кадров : 31,250 кадров/сек (1536 spf)
Метод сжатия : С потерями
Размер потока : 71,0 Мбайт (7%)
Текст #1
Идентификатор : 189 (0xBD)-43 (0x2B)
Формат : RLE
Формат/Информация : Run-length encoding
Режим смешивания : DVD-Video
Задержка видео : 14 с.
Текст #2
Идентификатор : 189 (0xBD)-42 (0x2A)
Формат : RLE
Формат/Информация : Run-length encoding
Режим смешивания : DVD-Video
Меню

Скриншоты


[Профиль] [ЛС]
Кто просматривает тему:

Форум Тема Автор Размер
Разная литература Дмитрий Коваль | Избавиться от боли за 30 секунд! Секретные точки здоровья. Тайны древнего Китая [2015] [FB2] достали все 4 MB
Фильмы (HD DVD, Blu-ray и BDRemux) Избави нас от лукавого / Deliver Us from Evil (2014) BDRemux 1080р от ExKinoRay | Чистый звук sergej644 22.81 GB
Фильмы (HD Rips | 720p, 1080p) Избави нас от лукавого / Deliver Us from Evil (2014) BDRip [720p] sergej644 12.39 GB
Фильмы 2014 года Избави нас от лукавого / Deliver Us from Evil (2014) HDRip | Звук с TS Белочка 1.37 GB
Фильмы 2014 года Избави нас от лукавого / Deliver Us from Evil (Скотт Дерриксон / Scott Derrickson) [2014, США, Ужасы, триллер, BDRip-AVC] Dub + Sub Rus,Eng + Original Eng TorrentFilm 2.94 GB
Фильмы 2014 года Избави нас от лукавого / Deliver Us from Evil (Скотт Дерриксон / Scott Derrickson) [2014, США, Ужасы, триллер, BDRip] Dub TorrentFilm 1.46 GB
Фильмы 2014 года Избави нас от лукавого / Deliver Us from Evil (Скотт Дерриксон / Scott Derrickson) [2014, США, ужасы, триллер, BDRip] Dub + Original Eng + subs (full pack) TorrentFilm 2.18 GB
Фильмы 2014 года Избави нас от лукавого / Deliver Us from Evil (Скотт Дерриксон / Scott Derrickson) [2014, США, Ужасы, триллер, HDRip] Dub TorrentFilm 745 MB
Показать сообщения:    

Текущее время: Сегодня 11:50

Часовой пояс: GMT



Вы не можете начинать темы
Вы не можете отвечать на сообщения
Вы не можете редактировать свои сообщения
Вы не можете удалять свои сообщения
Вы не можете голосовать в опросах
Вы не можете прикреплять файлы к сообщениям
Вы не можете скачивать файлы