Избави нас от лукавого / Deliver Us from Evil (Скотт Дерриксон / Scott Derrickson) [2014, США, Ужасы, триллер, BDRip] Dub

 
Автор Сообщение

TorrentFilm ®

Пол:

Стаж: 2 года

Сообщений: 7741



Награды: Нет

Торрент-статистика

Создавать темы 20-Дек-2014 02:00

[Цитировать]

Избави нас от лукавого / Deliver Us from Evil- Год выпуска: 2014
Выпущено: США / Jerry Bruckheimer Films
Жанр: ужасы, триллер
Продолжительность: 01:58:26
Перевод: Профессиональный (полное дублирование) BD CEE
Cубтитры: нет-Режиссер:
Скотт Дерриксон / Scott Derrickson-В ролях:
Эрик Бана (Sarchie), Эдгар Рамирес (Mendoza), Оливия Манн (Jen), Крис Кой (Jimmy), Дориан Миссик (Gordon), Шон Харрис (Santino), Джоэл МакХэйл (Butler), Майк Хьюстон (Nadler), Лулу Уилсон (Christina), Оливия Хортон (Jane), Скотт Джонсен (Lt. Griggs)-Описание:
Полиция Нью-Йорка расследует серию тревожных и необъяснимых преступлений. Один из офицеров обращается за помощью к специалисту по экзорцизму, чтобы избавить город от дьявольской напасти.-Релиз групп | | IMDB | КиноПоиск | Сэмпл |-Качество: BDRip [BDRemux | 1080p | Кинозал]
Формат: AVI
Видео: 720x304 (2.37:1), 23.976 fps, XviD build 73 ~1371 kbps avg, 0.26 bit/pixel
Аудио: 48 kHz, AC3 Dolby Digital, 3/2 (L,C,R,l,r) + LFE ch, ~384.00 kbps avg
-

Скриншоты

MediaInfo

General
Complete name                            : D:\Izbavi_nas_ot_lukavogo_2014_BDRip_CEE_by_Dalemake.avi
Format                                   : AVI
Format/Info                              : Audio Video Interleave
File size                                : 1.46 GiB
Duration                                 : 1h 58mn
Overall bit rate                         : 1 765 Kbps
Writing application                      : VirtualDubMod 1.5.10.3 | www.virtualdub-fr.org || (build 2550/release)
Writing library                          : VirtualDubMod build 2550/release
Video
ID                                       : 0
Format                                   : MPEG-4 Visual
Format profile                           : Advanced Simple@L5
Format settings, BVOP                    : 1
Format settings, QPel                    : No
Format settings, GMC                     : No warppoints
Format settings, Matrix                  : Custom
Codec ID                                 : XVID
Codec ID/Hint                            : XviD
Duration                                 : 1h 58mn
Bit rate                                 : 1 371 Kbps
Width                                    : 720 pixels
Height                                   : 304 pixels
Display aspect ratio                     : 2.35:1
Frame rate                               : 23.976 fps
Color space                              : YUV
Chroma subsampling                       : 4:2:0
Bit depth                                : 8 bits
Scan type                                : Progressive
Compression mode                         : Lossy
Bits/(Pixel*Frame)                       : 0.261
Stream size                              : 1.13 GiB (78%)
Writing library                          : XviD 73
Audio
ID                                       : 1
Format                                   : AC-3
Format/Info                              : Audio Coding 3
Mode extension                           : CM (complete main)
Format settings, Endianness              : Big
Codec ID                                 : 2000
Duration                                 : 1h 58mn
Bit rate mode                            : Constant
Bit rate                                 : 384 Kbps
Channel(s)                               : 6 channels
Channel positions                        : Front: L C R, Side: L R, LFE
Sampling rate                            : 48.0 KHz
Bit depth                                : 16 bits
Compression mode                         : Lossy
Stream size                              : 325 MiB (22%)
Alignment                                : Split accross interleaves
Interleave, duration                     : 42 ms (1.00 video frame)
Interleave, preload duration             : 500 ms
-
[Профиль] [ЛС]
Кто просматривает тему:

Форум Тема Автор Размер
Разная литература Дмитрий Коваль | Избавиться от боли за 30 секунд! Секретные точки здоровья. Тайны древнего Китая [2015] [FB2] достали все 4 MB
Фильмы (HD DVD, Blu-ray и BDRemux) Избави нас от лукавого / Deliver Us from Evil (2014) BDRemux 1080р от ExKinoRay | Чистый звук sergej644 22.81 GB
Фильмы (HD Rips | 720p, 1080p) Избави нас от лукавого / Deliver Us from Evil (2014) BDRip [720p] sergej644 12.39 GB
Фильмы (DVD 5/9) Избави нас от лукавого / Deliver Us from Evil (2014) DVD5 BOSS 4.36 GB
Фильмы 2014 года Избави нас от лукавого / Deliver Us from Evil (2014) HDRip | Звук с TS Белочка 1.37 GB
Фильмы 2014 года Избави нас от лукавого / Deliver Us from Evil (Скотт Дерриксон / Scott Derrickson) [2014, США, Ужасы, триллер, BDRip-AVC] Dub + Sub Rus,Eng + Original Eng TorrentFilm 2.94 GB
Фильмы 2014 года Избави нас от лукавого / Deliver Us from Evil (Скотт Дерриксон / Scott Derrickson) [2014, США, ужасы, триллер, BDRip] Dub + Original Eng + subs (full pack) TorrentFilm 2.18 GB
Фильмы 2014 года Избави нас от лукавого / Deliver Us from Evil (Скотт Дерриксон / Scott Derrickson) [2014, США, Ужасы, триллер, HDRip] Dub TorrentFilm 745 MB
Показать сообщения:    

Текущее время: Сегодня 21:00

Часовой пояс: GMT



Вы не можете начинать темы
Вы не можете отвечать на сообщения
Вы не можете редактировать свои сообщения
Вы не можете удалять свои сообщения
Вы не можете голосовать в опросах
Вы не можете прикреплять файлы к сообщениям
Вы не можете скачивать файлы