Избави нас от лукавого / Deliver Us from Evil (2014) BDRip [720p]

 
Автор Сообщение

sergej644 ®

Пол:

Стаж: 4 года 11 месяцев

Сообщений: 6035

Откуда: Soviet Union



Награды: Нет

Торрент-статистика

Создавать темы 02-Дек-2014 19:38

[Цитировать]

-Избави нас от лукавого / Deliver Us from Evil (2014) BDRip [720p]- Год выпуска: 2014
Производство: США, Jerry Bruckheimer Films
Жанр: Ужасы, Триллер, Криминал
Режиссер: Скотт Дерриксон
Продюсер: Джерри Брукхаймер, Пол Харрис Бордман, Гленн С. Гейнор
Актеры: Эрик Бана, Эдгар Рамирес, Оливия Манн, Крис Кой, Дориан Миссик, Шон Харрис, Джоэл МакХэйл, Майк Хьюстон, Лулу Уилсон, Оливия Хортон
Описание фильма:
Полиция Нью-Йорка расследует серию тревожных и необъяснимых преступлений. Один из офицеров обращается за помощью к специалисту по экзорцизму, чтобы избавить город от дьявольской напасти.
Перевод: Дублированный (Лицензия CEE); одноголосый, закадровый (А.Матвеев); (Ю.Немахов); (А.Дольский)
Субтитры: Вшитые отключаемые
Язык субтитров Русский (Forced, Full), английский (Forced, Full, SDH, SDH-COLORED)

Дата мировой премьеры: 2 июля 2014
Дата российской премьеры: 28 августа 2014, «WDSSPR»
Дата украинской премьеры: 28 августа 2014, «B&H Film Distribution Company»
Дата выхода DVD/Blu-Ray релиза: 4 декабря 2014, «CP Дистрибуция»
Продолжительность: 01:58:25
Качество видео: BDRip [720p]
Видеокодек: MPEG-4 AVC/H.264
Битрейт видео: ~6673 kbps
Размер кадра: 1280x534
Aудио#1: Русский: 48 kHz, AC3, 3/2 (L,C,R,l,r) + LFE ch, ~640.00 kbps avg - (Дубляж, Blu-ray CEE)
Aудио#2: Украинский: 48 kHz, AC3, 3/2 (L,C,R,l,r) + LFE ch, ~640.00 kbps avg - (Дубляж, Blu-ray CEE)
Аудио#3: Русский: 48 kHz/16-bit, DTS, 3/2 (L,C,R,l,r) + LFE ch, ~1536.00 kbps avg - (Одноголосый закадровый, Ю.Немахов)
Аудио#4: Русский: 48 kHz/16-bit, DTS, 3/2 (L,C,R,l,r) + LFE ch, ~1536.00 kbps avg - (Одноголосый закадровый, А.Дольский)
Аудио#5: Русский: 48 kHz/16-bit, DTS, 3/2 (L,C,R,l,r) + LFE ch, ~1536.00 kbps avg - (Одноголосый закадровый, А.Матвеев)
Аудио#6: Английский: 48 kHz/16-bit, DTS, 3/2 (L,C,R,l,r) + LFE ch, ~1536.00 kbps avg - (Оригинал)
Aудио#7: Английский: 48 kHz, AC3, 3/2 (L,C,R,l,r) + LFE ch, ~640.00 kbps avg - (Descriptive)
Aудио#8: Английский: 48 kHz, AC3, 2/0 (L,R) ch, ~192.00 kbps avg - (Commentary with Writer/Director Scott Derrickson)
Сэмпл: Скачать

MediaInfo:

Общее
Уникальный идентификатор : 182190431457201242431216472483264519307 (0x891099CAE934204F8FAFF592323CDC8B)
Полное имя : D:\Фильмы\Izbavi.nas.ot.lukavogo.2014.BDRip.720p.mkv
Формат : Matroska
Версия формата : Version 2
Размер файла : 12,4 Гбайт
Продолжительность : 1 ч. 58 м.
Общий поток : 15,0 Мбит/сек
Название фильма : Deliver Us from Evil (2014) - Release for HDCLUB
Дата кодирования : UTC 2014-12-02 13:58:55
Программа кодирования : mkvmerge v3.4.0 ('Rapunzel') built on May 15 2010 09:38:20
Библиотека кодирования : libebml v0.8.0 + libmatroska v0.9.0
Видео
Идентификатор : 1
Формат : AVC
Формат/Информация : Advanced Video Codec
Профиль формата : [url=mailto:High@L4.1]High@L4.1[/url]
Параметр CABAC формата : Да
Параметр ReFrames формата : 12 кадров
Идентификатор кодека : V_MPEG4/ISO/AVC
Продолжительность : 1 ч. 58 м.
Битрейт : 6531 Кбит/сек
Ширина : 1280 пикселей
Высота : 534 пикселя
Соотношение сторон : 2,40:1
Режим частоты кадров : Постоянный
Частота кадров : 23,976 кадра/сек
Цветовое пространство : YUV
Субдискретизация насыщенности : 4:2:0
Битовая глубина : 8 бит
Тип развёртки : Прогрессивная
Бит/(Пиксели*Кадры) : 0.398
Размер потока : 5,40 Гбайт (44%)
Заголовок : Deliver Us from Evil (2014) - Release for HDCLUB
Библиотека кодирования : x264 core 142 r2479kMod dd79a61
Настройки программы : cabac=1 / ref=12 / deblock=1:-3:-3 / analyse=0x3:0x133 / me=umh / subme=10 / psy=1 / fade_compensate=0.00 / psy_rd=1.01:0.00 / mixed_ref=1 / me_range=24 / chroma_me=1 / trellis=2 / 8x8dct=1 / cqm=0 / deadzone=21,11 / fast_pskip=0 / chroma_qp_offset=-2 / threads=18 / lookahead_threads=3 / sliced_threads=0 / nr=0 / decimate=0 / interlaced=0 / bluray_compat=0 / constrained_intra=0 / fgo=0 / bframes=9 / b_pyramid=2 / b_adapt=2 / b_bias=0 / direct=3 / weightb=1 / open_gop=0 / weightp=2 / keyint=250 / keyint_min=23 / scenecut=40 / intra_refresh=0 / rc=crf / mbtree=0 / crf=15.2000 / qcomp=0.75 / qpmin=0 / qpmax=69 / qpstep=4 / ip_ratio=1.20 / pb_ratio=1.10 / aq=1:0.79
Язык : English
Default : Да
Forced : Нет
Аудио #1
Идентификатор : 2
Формат : AC-3
Формат/Информация : Audio Coding 3
Расширение режима : CM (complete main)
Параметр Endianness формата : Big
Идентификатор кодека : A_AC3
Продолжительность : 1 ч. 58 м.
Вид битрейта : Постоянный
Битрейт : 640 Кбит/сек
Каналы : 6 каналов
Расположение каналов : Front: L C R, Side: L R, LFE
Частота : 48,0 КГц
Битовая глубина : 16 бит
Метод сжатия : С потерями
Размер потока : 542 Мбайт (4%)
Заголовок : AC3 5.1 @ 640 kbps - DUB, Blu-ray CEE
Язык : Russian
Default : Да
Forced : Нет
Аудио #2
Идентификатор : 3
Формат : AC-3
Формат/Информация : Audio Coding 3
Расширение режима : CM (complete main)
Параметр Endianness формата : Big
Идентификатор кодека : A_AC3
Продолжительность : 1 ч. 58 м.
Вид битрейта : Постоянный
Битрейт : 640 Кбит/сек
Каналы : 6 каналов
Расположение каналов : Front: L C R, Side: L R, LFE
Частота : 48,0 КГц
Битовая глубина : 16 бит
Метод сжатия : С потерями
Размер потока : 542 Мбайт (4%)
Заголовок : AC3 5.1 @ 640 kbps - DUB, Blu-ray CEE
Язык : Ukrainian
Default : Нет
Forced : Нет
Аудио #3
Идентификатор : 4
Формат : DTS
Формат/Информация : Digital Theater Systems
Режим : 16
Параметр Endianness формата : Big
Идентификатор кодека : A_DTS
Продолжительность : 1 ч. 58 м.
Вид битрейта : Постоянный
Битрейт : 1509 Кбит/сек
Каналы : 6 каналов
Расположение каналов : Front: L C R, Side: L R, LFE
Частота : 48,0 КГц
Битовая глубина : 16 бит
Метод сжатия : С потерями
Размер потока : 1,25 Гбайт (10%)
Заголовок : DTS 5.1 @ 1536 kbps - Y.Nemahov
Язык : Russian
Default : Нет
Forced : Нет
Аудио #4
Идентификатор : 5
Формат : DTS
Формат/Информация : Digital Theater Systems
Режим : 16
Параметр Endianness формата : Big
Идентификатор кодека : A_DTS
Продолжительность : 1 ч. 58 м.
Вид битрейта : Постоянный
Битрейт : 1509 Кбит/сек
Каналы : 6 каналов
Расположение каналов : Front: L C R, Side: L R, LFE
Частота : 48,0 КГц
Битовая глубина : 16 бит
Метод сжатия : С потерями
Размер потока : 1,25 Гбайт (10%)
Заголовок : DTS 5.1 @ 1536 kbps - A.Dolskiy
Язык : Russian
Default : Нет
Forced : Нет
Аудио #5
Идентификатор : 6
Формат : DTS
Формат/Информация : Digital Theater Systems
Режим : 16
Параметр Endianness формата : Big
Идентификатор кодека : A_DTS
Продолжительность : 1 ч. 58 м.
Вид битрейта : Постоянный
Битрейт : 1509 Кбит/сек
Каналы : 6 каналов
Расположение каналов : Front: L C R, Side: L R, LFE
Частота : 48,0 КГц
Битовая глубина : 16 бит
Метод сжатия : С потерями
Размер потока : 1,25 Гбайт (10%)
Заголовок : DTS 5.1 @ 1536 kbps - A.Matveev
Язык : Russian
Default : Нет
Forced : Нет
Аудио #6
Идентификатор : 7
Формат : DTS
Формат/Информация : Digital Theater Systems
Режим : 16
Параметр Endianness формата : Big
Идентификатор кодека : A_DTS
Продолжительность : 1 ч. 58 м.
Вид битрейта : Постоянный
Битрейт : 1509 Кбит/сек
Каналы : 6 каналов
Расположение каналов : Front: L C R, Side: L R, LFE
Частота : 48,0 КГц
Битовая глубина : 24 бит
Метод сжатия : С потерями
Задержка видео : 11 мс.
Размер потока : 1,25 Гбайт (10%)
Заголовок : DTS 5.1 @ 1536 kbps
Язык : English
Default : Нет
Forced : Нет
Аудио #7
Идентификатор : 8
Формат : AC-3
Формат/Информация : Audio Coding 3
Расширение режима : CM (complete main)
Параметр Endianness формата : Big
Идентификатор кодека : A_AC3
Продолжительность : 1 ч. 58 м.
Вид битрейта : Постоянный
Битрейт : 640 Кбит/сек
Каналы : 6 каналов
Расположение каналов : Front: L C R, Side: L R, LFE
Частота : 48,0 КГц
Битовая глубина : 16 бит
Метод сжатия : С потерями
Размер потока : 542 Мбайт (4%)
Заголовок : AC3 5.1 @ 640 kbps - Descriptive
Язык : English
Default : Нет
Forced : Нет
Аудио #8
Идентификатор : 9
Формат : AC-3
Формат/Информация : Audio Coding 3
Профиль формата : Dolby Digital
Расширение режима : CM (complete main)
Параметр Endianness формата : Big
Идентификатор кодека : A_AC3
Продолжительность : 1 ч. 58 м.
Вид битрейта : Постоянный
Битрейт : 192 Кбит/сек
Каналы : 2 канала
Расположение каналов : Front: L R
Частота : 48,0 КГц
Битовая глубина : 16 бит
Метод сжатия : С потерями
Размер потока : 163 Мбайт (1%)
Заголовок : AC3 2.0 @ 192 kbps - Commentary with Writer/Director Scott Derrickson
Язык : English
Default : Нет
Forced : Нет
Текст #1
Идентификатор : 10
Формат : UTF-8
Идентификатор кодека : S_TEXT/UTF8
Идентификатор кодека/Информация : UTF-8 Plain Text
Заголовок : Forced
Язык : Russian
Default : Да
Forced : Нет
Текст #2
Идентификатор : 11
Формат : UTF-8
Идентификатор кодека : S_TEXT/UTF8
Идентификатор кодека/Информация : UTF-8 Plain Text
Язык : Russian
Default : Нет
Forced : Нет
Текст #3
Идентификатор : 12
Формат : UTF-8
Идентификатор кодека : S_TEXT/UTF8
Идентификатор кодека/Информация : UTF-8 Plain Text
Заголовок : Forced
Язык : English
Default : Нет
Forced : Нет
Текст #4
Идентификатор : 13
Формат : UTF-8
Идентификатор кодека : S_TEXT/UTF8
Идентификатор кодека/Информация : UTF-8 Plain Text
Заголовок : iTunes
Язык : English
Default : Нет
Forced : Нет
Текст #5
Идентификатор : 14
Формат : UTF-8
Идентификатор кодека : S_TEXT/UTF8
Идентификатор кодека/Информация : UTF-8 Plain Text
Язык : English
Default : Нет
Forced : Нет
Текст #6
Идентификатор : 15
Формат : UTF-8
Идентификатор кодека : S_TEXT/UTF8
Идентификатор кодека/Информация : UTF-8 Plain Text
Заголовок : SDH
Язык : English
Default : Нет
Forced : Нет
Текст #7
Идентификатор : 16
Формат : UTF-8
Идентификатор кодека : S_TEXT/UTF8
Идентификатор кодека/Информация : UTF-8 Plain Text
Заголовок : SDH-COLORED
Язык : English
Default : Нет
Forced : Нет
Меню
00:00:00.000 : en:00:00:00.000
00:04:54.878 : en:00:04:54.878
00:11:12.213 : en:00:11:12.213
00:17:51.070 : en:00:17:51.070
00:29:42.364 : en:00:29:42.364
00:36:24.724 : en:00:36:24.724
00:43:08.836 : en:00:43:08.836
00:49:09.864 : en:00:49:09.864
00:57:52.594 : en:00:57:52.594
01:06:12.218 : en:01:06:12.218
01:12:45.611 : en:01:12:45.611
01:19:45.072 : en:01:19:45.072
01:30:14.743 : en:01:30:14.743
01:36:53.725 : en:01:36:53.725
01:41:59.447 : en:01:41:59.447
01:48:39.221 : en:01:48:39.221

Знаете ли вы, что...:

• Джоэл МакХэйл несколько месяцев посещал тренировки по обращению с ножами и боевым искусствам, чтобы самостоятельно выполнять трюки с ножами во время съемок. При этом он не получил практически ни одной травмы за время тренировок и в период съемок. Лишь в последний съемочный день, когда сын МакХэйла пришел на съемочную площадку, актер решил отрезать для него своим ножом кусок белого шоколада и порезался.
• Главную роль предлагали Марку Уолбергу, но он отказался. В итоге роль получил Эрик Бана.
• Роль Батлера изначально писалась под Джоэла МакХэйла. При этом, по словам режиссера Скотта Дерриксона, Батлер был худшим персонажем в сценарии. Но потом он представил – каким бы был МакХэйл, если бы он пошел в армию, а не в колледж, и работал бы в правоохранительных органах, а не в сфере развлечений. После этого писать роль стало проще, и персонаж был значительно доработан.
• В фильме большое количество музыки группы The Doors, а также различных отсылок на нее. К примеру, во время финального изгнания нечистой силы Сантино говорит: «Is everybody in? Is everybody in? The ceremony is about to begin» (Все в сборе? Все в сборе? Церемония скоро начнется). Это отсылка к песне «Celebration Of The Lizard».

Ошибки в фильме:

• В начале фильма Джимми оставляет глубокий порез на руке Сарчи во время их противостояния. И его напарник говорит о том, что понадобится наложить швы. Далее в сцене в зоопарке Бронкса раны не видно. А сразу же после этого, когда Сарчи находится у себя дома, его рука уже перевязана.
• Когда священник рассказывает Ральфу о своем романе и последующем аборте его девушки, он говорит, что должен быть лишен сана (в оригинале «defrocked»). Затем он говорит, что его исповедник также предупреждал его, что если он еще раз поведет себя подобным образом, то будет лишен сана. «Defrocked» (лишение сана) является протестантским термином, и католические священники его не используют.
Скриншоты: Время раздачи: 24/7
(до 5 скачавших)
[Профиль] [ЛС]
Кто просматривает тему:

Форум Тема Автор Размер
Разная литература Дмитрий Коваль | Избавиться от боли за 30 секунд! Секретные точки здоровья. Тайны древнего Китая [2015] [FB2] достали все 4 MB
Фильмы (HD DVD, Blu-ray и BDRemux) Избави нас от лукавого / Deliver Us from Evil (2014) BDRemux 1080р от ExKinoRay | Чистый звук sergej644 22.81 GB
Фильмы (DVD 5/9) Избави нас от лукавого / Deliver Us from Evil (2014) DVD5 BOSS 4.36 GB
Фильмы 2014 года Избави нас от лукавого / Deliver Us from Evil (2014) HDRip | Звук с TS Белочка 1.37 GB
Фильмы 2014 года Избави нас от лукавого / Deliver Us from Evil (Скотт Дерриксон / Scott Derrickson) [2014, США, Ужасы, триллер, BDRip-AVC] Dub + Sub Rus,Eng + Original Eng TorrentFilm 2.94 GB
Фильмы 2014 года Избави нас от лукавого / Deliver Us from Evil (Скотт Дерриксон / Scott Derrickson) [2014, США, Ужасы, триллер, BDRip] Dub TorrentFilm 1.46 GB
Фильмы 2014 года Избави нас от лукавого / Deliver Us from Evil (Скотт Дерриксон / Scott Derrickson) [2014, США, ужасы, триллер, BDRip] Dub + Original Eng + subs (full pack) TorrentFilm 2.18 GB
Фильмы 2014 года Избави нас от лукавого / Deliver Us from Evil (Скотт Дерриксон / Scott Derrickson) [2014, США, Ужасы, триллер, HDRip] Dub TorrentFilm 745 MB
Показать сообщения:    

Текущее время: Сегодня 09:50

Часовой пояс: GMT



Вы не можете начинать темы
Вы не можете отвечать на сообщения
Вы не можете редактировать свои сообщения
Вы не можете удалять свои сообщения
Вы не можете голосовать в опросах
Вы не можете прикреплять файлы к сообщениям
Вы не можете скачивать файлы