Иерей-сан. Исповедь самурая (2015) BDRip 1080p | Лицензия

 
Автор Сообщение

достали все ®

Пол:

Стаж: 1 год 8 месяцев

Сообщений: 6600



Награды: 12 (Подробнее)

Mega Seeder 3 (Количество: 1) Top Releaser 2 (Количество: 1) Mega Seeder 5 (Количество: 1)
Торрент-статистика

Создавать темы 18-Янв-2016 04:07

[Цитировать]

Информация о фильме
Название: Иерей-сан. Исповедь самурая
Год выхода: 2015
Жанр: боевик, драма
Режиссер: Егор Баранов
В ролях: Кэри-Хироюки Тагава, Пётр Фёдоров, Иван Охлобыстин, Игорь Жижикин, Петр Мамонов, Дарья Екамасова, Любовь Толкалина, Людмила Чурсина, Надежда Маркина, Алина Бабак
О фильме:
Главный герой — Такуро Накамура, в крещении отец Николай — священник японской православной церкви, в прошлом профессиональный спортсмен, а в настоящем — родной брат главы одного из влиятельных кланов якудза. Однажды он не смог пройти мимо насилия и защитил обычную девушку, вступив в схватку с людьми из враждебной брату группировки. Война кланов якудза неизбежна. Став заложником криминальных «разборок», священник подвергается смертельной опасности и его отправляют служить в российское село Глубокое, раздираемое внутренними конфликтами. Это место крайне интересно Андрею Нелюбину для земельных махинаций, и он готов пойти на все, чтобы жители покинули родные земли. Отец Николай объединяет сельчан вокруг полуразрушенной церкви. Восстанавливая храм, они возродили мир между собой и приняли вызов. Началась уже совсем другая война…
Страна: Россия
Студия: Студия Ортодокс
Продолжительность: 01:37:46
Перевод: Оригинальный (Blu-ray RUS)
Файл
Формат: Matroska
Видео: 1920x804 at 25.000 fps, x264@L4.1 ~12400 kbps avg
Аудио#1: Russian: 48 kHz, DTS, 3/2 (L,C,R,l,r) + LFE ch, ~1509.00 kbps avg
Аудио#2: Russian: 48 kHz, AC3, 3/2 (L,C,R,l,r) + LFE ch ~640.00 kbps avg
Субтитры: Russian (Forced - Hardsub)
***Сохранены оригинальные главы как на Blu-ray.
***Видеоряд - bog3417.

MI

Общее
Уникальный идентификатор : 213459589113710470889403878826790885798 (0xA096D24B243CA009AD7049F0653019A6)
Полное имя : Ierey-san.Ispoved.samuraya.2015.BDRip.1080p.mkv
Формат : Matroska
Версия формата : Version 2
Размер файла : 9,94 Гбайт
Продолжительность : 1 ч. 37 м.
Общий поток : 14,5 Мбит/сек
Название фильма : BLUEBIRD@bog3417
Дата кодирования : UTC 2016-01-17 17:24:11
Программа кодирования : mkvmerge v7.9.0 ('Birds') 64bit
Библиотека кодирования : libebml v1.3.1 + libmatroska v1.4.2
Видео
Идентификатор : 1
Формат : AVC
Формат/Информация : Advanced Video Codec
Профиль формата : High@L4.1
Параметр CABAC формата : Да
Параметр ReFrames формата : 5 кадров
Идентификатор кодека : V_MPEG4/ISO/AVC
Продолжительность : 1 ч. 37 м.
Битрейт : 12,4 Мбит/сек
Ширина : 1920 пикселей
Высота : 804 пикселя
Соотношение сторон : 2,40:1
Режим частоты кадров : Постоянный
Частота кадров : 25,000 кадров/сек
Цветовое пространство : YUV
Субдискретизация насыщенности : 4:2:0
Битовая глубина : 8 бит
Тип развёртки : Прогрессивная
Бит/(Пиксели*Кадры) : 0.321
Размер потока : 8,27 Гбайт (83%)
Заголовок : BLUEBIRD@bog3417
Библиотека кодирования : x264 core 148 r2638 7599210
Настройки программы : cabac=1 / ref=5 / deblock=1:-3:-3 / analyse=0x3:0x133 / me=umh / subme=11 / psy=1 / psy_rd=1.00:0.00 / mixed_ref=1 / me_range=48 / chroma_me=1 / trellis=2 / 8x8dct=1 / cqm=0 / deadzone=21,11 / fast_pskip=0 / chroma_qp_offset=-2 / threads=12 / lookahead_threads=2 / sliced_threads=0 / nr=0 / decimate=0 / interlaced=0 / bluray_compat=0 / constrained_intra=0 / bframes=9 / b_pyramid=2 / b_adapt=2 / b_bias=0 / direct=3 / weightb=1 / open_gop=0 / weightp=2 / keyint=250 / keyint_min=25 / scenecut=40 / intra_refresh=0 / rc=2pass / mbtree=0 / bitrate=12400 / ratetol=1.0 / qcomp=0.60 / qpmin=0 / qpmax=69 / qpstep=4 / cplxblur=20.0 / qblur=0.5 / ip_ratio=1.40 / pb_ratio=1.30 / aq=3:0.70
Язык : English
Default : Да
Forced : Нет
Аудио #1
Идентификатор : 2
Формат : DTS
Формат/Информация : Digital Theater Systems
Режим : 16
Параметр Endianness формата : Big
Идентификатор кодека : A_DTS
Продолжительность : 1 ч. 37 м.
Вид битрейта : Постоянный
Битрейт : 1509 Кбит/сек
Каналы : 6 каналов
Расположение каналов : Front: L C R, Side: L R, LFE
Частота : 48,0 КГц
Битовая глубина : 16 бит
Метод сжатия : С потерями
Размер потока : 1,03 Гбайт (10%)
Язык : Russian
Default : Да
Forced : Нет
Аудио #2
Идентификатор : 3
Формат : AC-3
Формат/Информация : Audio Coding 3
Расширение режима : CM (complete main)
Параметр Endianness формата : Big
Идентификатор кодека : A_AC3
Продолжительность : 1 ч. 37 м.
Вид битрейта : Постоянный
Битрейт : 640 Кбит/сек
Каналы : 6 каналов
Расположение каналов : Front: L C R, Side: L R, LFE
Частота : 48,0 КГц
Метод сжатия : С потерями
Размер потока : 448 Мбайт (4%)
Язык : Russian
Default : Нет
Forced : Нет
Меню
00:00:00.000 : en:00:00:00.000
00:00:33.440 : en:00:00:33.440
00:12:39.360 : en:00:12:39.360
00:25:40.160 : en:00:25:40.160
00:38:11.680 : en:00:38:11.680
00:49:09.040 : en:00:49:09.040
00:58:40.920 : en:00:58:40.920
01:10:12.120 : en:01:10:12.120
01:24:47.800 : en:01:24:47.800

Скриншоты

[Профиль] [ЛС]
Показать сообщения:    

Текущее время: Сегодня 13:51

Часовой пояс: GMT



Вы не можете начинать темы
Вы не можете отвечать на сообщения
Вы не можете редактировать свои сообщения
Вы не можете удалять свои сообщения
Вы не можете голосовать в опросах
Вы не можете прикреплять файлы к сообщениям
Вы не можете скачивать файлы