Иерей-сан. Исповедь самурая (2015) WEB-DL 1080p | iTunes

 
Автор Сообщение

BOSS ®

Пол:

Стаж: 2 года 1 месяц

Сообщений: 3719

Откуда: ODESSA



Награды: 20 (Подробнее)

Top Seeder 4 (Количество: 1) Mega Seeder 3 (Количество: 1) Top Releaser 4 (Количество: 1)
Торрент-статистика

Создавать темы 26-Дек-2015 08:17

[Цитировать]

Информация о фильме
Название: Иерей-сан. Исповедь самурая
Оригинальное название: Иерей-сан. Исповедь самурая
Год выхода: 2015
Жанр: боевик, драма
Режиссёр: Егор Баранов
В ролях: Кэри-Хироюки Тагава, Пётр Фёдоров, Иван Охлобыстин, Игорь Жижикин, Петр Мамонов, Дарья Екамасова, Любовь Толкалина, Людмила Чурсина, Надежда Маркина, Алина Бабак
О фильме: Главный герой — Такуро Накамура, в крещении отец Николай — священник японской православной церкви, в прошлом профессиональный спортсмен, а в настоящем — родной брат главы одного из влиятельных кланов якудза. Однажды он не смог пройти мимо насилия и защитил обычную девушку, вступив в схватку с людьми из враждебной брату группировки. Война кланов якудза неизбежна. Став заложником криминальных «разборок», священник подвергается смертельной опасности и его отправляют служить в российское село Глубокое, раздираемое внутренними конфликтами. Это место крайне интересно Андрею Нелюбину для земельных махинаций, и он готов пойти на все, чтобы жители покинули родные земли. Отец Николай объединяет сельчан вокруг полуразрушенной церкви. Восстанавливая храм, они возродили мир между собой и приняли вызов. Началась уже совсем другая война…

Страна: Россия
Продолжительность: 01:41:51
Озвучивание: Оригинальное [iTunes]
Файл
Формат: MKV (x264)
Качество: WEB-DL 1080p
Видео: 4402 kb/s, 1920x804
Звук: AC3, 384 kb/s (6 ch)

МедиаИнфо

Format : Matroska
Format version : Version 4 / Version 2
File size : 3.47 GiB
Duration : 1h 41mn
Overall bit rate : 4 883 Kbps
Encoded date : UTC 2015-12-25 19:18:52
Writing application : mkvmerge v8.3.0 ('Over the Horizon') 64bit
Writing library : libebml v1.3.1 + libmatroska v1.4.2
Video
ID : 1
Format : AVC
Format/Info : Advanced Video Codec
Format profile : High@L4
Format settings, CABAC : Yes
Format settings, ReFrames : 5 frames
Codec ID : V_MPEG4/ISO/AVC
Duration : 1h 41mn
Bit rate : 4 402 Kbps
Width : 1 920 pixels
Height : 804 pixels
Display aspect ratio : 2.40:1
Frame rate mode : Constant
Frame rate : 24.000 fps
Color space : YUV
Chroma subsampling : 4:2:0
Bit depth : 8 bits
Scan type : Progressive
Bits/(Pixel*Frame) : 0.119
Stream size : 3.13 GiB (90%)
Language : English
Default : Yes
Forced : No
Color range : Limited
Color primaries : BT.709
Transfer characteristics : BT.709
Matrix coefficients : BT.709
Audio
ID : 2
Format : AC-3
Format/Info : Audio Coding 3
Mode extension : CM (complete main)
Format settings, Endianness : Big
Codec ID : A_AC3
Duration : 1h 41mn
Bit rate mode : Constant
Bit rate : 384 Kbps
Channel(s) : 6 channels
Channel positions : Front: L C R, Side: L R, LFE
Sampling rate : 48.0 KHz
Bit depth : 16 bits
Compression mode : Lossy
Stream size : 280 MiB (8%)
Language : Russian
Default : Yes
Forced : No
Menu
00:00:00.000 : en:Глава 1
00:05:58.000 : en:Глава 2
00:12:53.000 : en:Глава 3
00:19:32.000 : en:Глава 4
00:26:28.000 : en:Глава 5
00:31:49.000 : en:Глава 6
00:37:29.000 : en:Глава 7
00:42:49.000 : en:Глава 8
00:48:45.000 : en:Глава 9
00:55:29.000 : en:Глава 10
01:02:03.000 : en:Глава 11
01:08:00.000 : en:Глава 12
01:13:05.000 : en:Глава 13
01:18:23.000 : en:Глава 14
01:24:40.000 : en:Глава 15
01:30:59.000 : en:Глава 16
01:36:16.000 : en:Глава 17

Скриншоты

[Профиль] [ЛС]
Показать сообщения:    

Текущее время: Сегодня 04:47

Часовой пояс: GMT



Вы не можете начинать темы
Вы не можете отвечать на сообщения
Вы не можете редактировать свои сообщения
Вы не можете удалять свои сообщения
Вы не можете голосовать в опросах
Вы не можете прикреплять файлы к сообщениям
Вы не можете скачивать файлы