Идеальный побег / A Perfect Getaway (Дэвид Туи / David Twohy) [2009, США, триллер, детектив, приключения, HDRip] [Director\'s Cut] 2x AVO (Дольский, Немахов)

 
Автор Сообщение

TorrentFilm ®

Пол:

Стаж: 2 года

Сообщений: 7741



Награды: Нет

Торрент-статистика

Создавать темы 24-Дек-2015 00:21

[Цитировать]

Идеальный побег / A Perfect Getaway [Director's Cut] Страна: США
Жанр: триллер, детектив, приключения
Год выпуска: 2009
Продолжительность: 01:47:39
Перевод 1: Авторский (одноголосый закадровый) Андрей Дольский
Перевод 2: Авторский (одноголосый закадровый) Юрий Немахов
Cубтитры: нет
Режиссер: Дэвид Туи / David Twohy
В ролях: Стив Зан, Тимоти Олифант, Милла Йовович, Киле Санчез, Марли Шелтон, Крис Хемсворт, Энтони Руйвивар, Дейл Дикки, Питер Нэви Туясосопо, Венди Браун
Описание: Медовый месяц — самое счастливое время для молодоженов. Они — красивая пара, добившаяся успеха в жизни и впереди ожидающая только счастья и радости! Их свадебное путешествие на Гавайи похоже на сказку. Правда, все это омрачается грозными сообщениями о том, что на острове, куда они отправились, орудуют серийные убийцы.

Качество видео: НDRip
Формат видео: AVI
Видео кодек: XviD
Аудио кодек: AC3
Видео: 720x304 (2.37:1), 23.976 fps, XviD build 73 ~1869 kbps avg, 0.36 bit/pixel
Аудио#1: 48 kHz, AC3 Dolby Digital, 3/2 (L,C,R,l,r) + LFE ch, ~448 kbps - Дольский
Аудио#2: 48 kHz, AC3 Dolby Digital, 3/2 (L,C,R,l,r) + LFE ch, ~448 kbps - Немахов

Доп.инфоза [b]Дольского[/b] и [b]Немахова[/b] спасибо [b][color=blue]ylnian[/color][/b]MediaInfo

Complete name : Идеальный побег DC.avi
Format : AVI
Format/Info : Audio Video Interleave
Format profile : OpenDML
File size : 2.08 GiB
Duration : 1h 47mn
Overall bit rate : 2 772 Kbps
Writing application : VirtualDubMod 1.5.10.3 | www.virtualdub-fr.org || (build 2550/release)
Writing library : VirtualDubMod build 2550/release
Video
ID : 0
Format : MPEG-4 Visual
Format profile : Advanced Simple@L5
Format settings, BVOP : 2
Format settings, QPel : No
Format settings, GMC : No warppoints
Format settings, Matrix : Custom
Codec ID : XVID
Codec ID/Hint : XviD
Duration : 1h 47mn
Bit rate : 1 858 Kbps
Width : 720 pixels
Height : 304 pixels
Display aspect ratio : 2.35:1
Frame rate : 23.976 fps
Color space : YUV
Chroma subsampling : 4:2:0
Bit depth : 8 bits
Scan type : Progressive
Compression mode : Lossy
Bits/(Pixel*Frame) : 0.354
Stream size : 1.40 GiB (67%)
Writing library : XviD 73
Audio #1
ID : 1
Format : AC-3
Format/Info : Audio Coding 3
Mode extension : CM (complete main)
Format settings, Endianness : Big
Codec ID : 2000
Duration : 1h 47mn
Bit rate mode : Constant
Bit rate : 448 Kbps
Channel(s) : 6 channels
Channel positions : Front: L C R, Side: L R, LFE
Sampling rate : 48.0 KHz
Compression mode : Lossy
Stream size : 345 MiB (16%)
Alignment : Split accross interleaves
Interleave, duration : 42 ms (1.00 video frame)
Interleave, preload duratio : 500 ms
Title : Дольский
Audio #2
ID : 2
Format : AC-3
Format/Info : Audio Coding 3
Mode extension : CM (complete main)
Format settings, Endianness : Big
Codec ID : 2000
Duration : 1h 47mn
Bit rate mode : Constant
Bit rate : 448 Kbps
Channel(s) : 6 channels
Channel positions : Front: L C R, Side: L R, LFE
Sampling rate : 48.0 KHz
Compression mode : Lossy
Stream size : 345 MiB (16%)
Alignment : Split accross interleaves
Interleave, duration : 42 ms (1.00 video frame)
Interleave, preload duratio : 500 ms
Title : Немахов

Скриншоты

[Профиль] [ЛС]

Создавать темы 12-Июн-2016 07:56 (спустя 5 месяцев 19 дней)

Топик был перенесен из форума Фильмы 2011 года в форум Фильмы 2009 года
Russian Mafia
 
Показать сообщения:    

Текущее время: Сегодня 18:16

Часовой пояс: GMT



Вы не можете начинать темы
Вы не можете отвечать на сообщения
Вы не можете редактировать свои сообщения
Вы не можете удалять свои сообщения
Вы не можете голосовать в опросах
Вы не можете прикреплять файлы к сообщениям
Вы не можете скачивать файлы