Идеальный незнакомец / Perfect Stranger (Джеймс Фоули / James Foley) [2007, США, Триллер, драма, криминал, детектив, BDRip] Dub

 
Автор Сообщение

reversefile ®

Пол:

Стаж: 4 года 5 месяцев

Сообщений: 842

Откуда: ReverseFile.org



Награды: Нет

Торрент-статистика

Создавать темы 11-Авг-2014 10:43

[Цитировать]

Идеальный незнакомец / Perfect Stranger
«Как далеко ты способен зайти?»
- Год выпуска: 2007
Выпущено: США / Revolution Studios
Жанр: триллер, драма, криминал, детектив
Продолжительность: 01:48:58
Перевод: Профессиональный (полное дублирование) BD CEE
Cубтитры: нет-Режиссер:
Джеймс Фоули / James Foley-В ролях:
Холли Берри (Rowena Price), Брюс Уиллис (Harrison Hill), Джованни Рибизи (Miles Haley), Ричард Портноу (Narron), Гари Дурдан (Cameron), Флоренция Лозаньо (Lieutenant Tejada), Никки Эйкокс (Grace), Кэтлин Чэлфант (Elizabeth Clayton), Гордон МакДональд (Senator Sachs), Дэниэлла Ван Граас (Josie)-Описание:
Когда журналистка Ровена Прайс, занимающаяся расследованием убийства своей подруги, узнает, что к нему может быть причастен влиятельный глава рекламного агентства Харрисон Хилл, она затевает опасную игру вместе со своим помощником Майлзом Хэйли.
Принимая образы Катарины, машинистки в агентстве Хилла, и Вероники, девушки, с которой Хилл флиртует в Интернете, она плетет хитроумную паутину вокруг своей жертвы, чтобы, в конечном счете, выяснить, что она не единственная, кто меняет свои личины. Чем ближе мы приближаемся к разгадке тайны, тем очевиднее ответ на вопрос, как далеко люди готовы идти, чтобы защитить ее: сокровенную тайну.-IMDB | КиноПоиск | Сэмпл |-Качество: BDRip Blu-Ray Disk
Формат: AVI
Видео: 720x304 (2.37:1), 23.976 fps, XviD build 73 ~1521 kbps avg, 0.29 bit/pixel
Аудио: 48 kHz, AC3 Dolby Digital, 3/2 (L,C,R,l,r) + LFE ch, ~384.00 kbps avg
-

Скриншоты

MediaInfo

General
Complete name                            : D:\Idealnyi_neznakomets_2007_BDRip_by_Dalemake.avi
Format                                   : AVI
Format/Info                              : Audio Video Interleave
File size                                : 1.46 GiB
Duration                                 : 1h 48mn
Overall bit rate                         : 1 915 Kbps
Writing application                      : VirtualDubMod 1.5.10.3 | www.virtualdub-fr.org || (build 2550/release)
Writing library                          : VirtualDubMod build 2550/release
Video
ID                                       : 0
Format                                   : MPEG-4 Visual
Format profile                           : Advanced Simple@L5
Format settings, BVOP                    : 1
Format settings, QPel                    : No
Format settings, GMC                     : No warppoints
Format settings, Matrix                  : Custom
Codec ID                                 : XVID
Codec ID/Hint                            : XviD
Duration                                 : 1h 48mn
Bit rate                                 : 1 522 Kbps
Width                                    : 720 pixels
Height                                   : 304 pixels
Display aspect ratio                     : 2.35:1
Frame rate                               : 23.976 fps
Color space                              : YUV
Chroma subsampling                       : 4:2:0
Bit depth                                : 8 bits
Scan type                                : Progressive
Compression mode                         : Lossy
Bits/(Pixel*Frame)                       : 0.290
Stream size                              : 1.16 GiB (79%)
Writing library                          : XviD 73
Audio
ID                                       : 1
Format                                   : AC-3
Format/Info                              : Audio Coding 3
Mode extension                           : CM (complete main)
Format settings, Endianness              : Big
Codec ID                                 : 2000
Duration                                 : 1h 48mn
Bit rate mode                            : Constant
Bit rate                                 : 384 Kbps
Channel(s)                               : 6 channels
Channel positions                        : Front: L C R, Side: L R, LFE
Sampling rate                            : 48.0 KHz
Bit depth                                : 16 bits
Compression mode                         : Lossy
Stream size                              : 299 MiB (20%)
Alignment                                : Split accross interleaves
Interleave, duration                     : 42 ms (1.00 video frame)
Interleave, preload duration             : 500 ms
-
[Профиль] [ЛС]

Создавать темы 06-Авг-2015 23:20 (спустя 11 месяцев 26 дней)

Топик был перенесен из форума Фильмы до 2014 года в форум Фильмы до 2012 года
sergej644
 
Показать сообщения:    

Текущее время: Сегодня 14:54

Часовой пояс: GMT



Вы не можете начинать темы
Вы не можете отвечать на сообщения
Вы не можете редактировать свои сообщения
Вы не можете удалять свои сообщения
Вы не можете голосовать в опросах
Вы не можете прикреплять файлы к сообщениям
Вы не можете скачивать файлы