Идеальный муж / An Ideal Husband (1999) BDRip-AVC от 0ptimus | P

 
Автор Сообщение

Белочка ®

Пол:

Стаж: 5 лет 1 месяц

Сообщений: 2089



Награды: 1 (Подробнее)

Girls (Количество: 1)
Торрент-статистика

Создавать темы 14-Окт-2014 16:17

[Цитировать]

Идеальный муж
| An Ideal Husband |

Информация о фильме
Название: Идеальный муж
Оригинальное название: An Ideal Husband
Год выхода: 1999
Жанр: комедия, мелодрама
Режиссер: Оливер Паркер
В ролях: Руперт Эверетт, Джулианна Мур, Кейт Бланшетт, Минни Драйвер, Джереми Нортэм, Джон Вуд, Питер Вон, Бен Пуллен, Марша Фитцалан, Линдси Дункан
О фильме:
Сэр Роберт Чилтерн — преуспевающий правительственный министр, состоятельный и состоящий в счастливом браке с леди Гертрудой Чилтерн. Но идиллия нарушается, когда в Лондоне появляется миссис Чивли, имеющая ужасающие улики о его не совсем идеальном прошлом. С их помощью она шантажирует сэра Роберта, требуя взамен во время заседания парламента кардинально изменить позицию в отношении одного принимаемого закона. Чилтерн не рассказывал своей супруге об этой странице своей биографии и разрывается между желанием сказать ей правду и боязнью того, что узнав правду, Гертруда разочаруется в нём и отвернётся. Он обращается за помощью к своему другу, лорду Горингу, известному дамскому угоднику, разочаровывающему своего отца. Горинг давно знаком с миссис Чивли и у него созревает план по спасению друга, включающий в себя соблазнение мошенницы...

Страна: Великобритания, США
Студия: Arts Council of England, Canal+, Fragile Films, Icon Entertainmnet International, Icon Productions
Продолжительность: 01:37:47
Перевод: Профессиональный многоголосый
Файл
Кодек: h.264
Качество: BDRip-AVC
Видео: 2173 Кбит/с, 1024x554, 24.000 кадр/c
Звук:
• №1: Русский (AC3, 6 ch, 384 Кбит/с) Профессиональный многоголосый [R5]
• №2: Английский (AC3, 6 ch, 384 Кбит/с)
Субтитры: Русские, английские

MediaInfo

--------------------------------------------------------------------------------------
x264 [info]: frame I:1077 Avg QP:16.85 size: 72469
x264 [info]: frame P:26830 Avg QP:19.70 size: 23600
x264 [info]: frame B:112914 Avg QP:20.94 size: 7816
--------------------------------------------------------------------------------------
Полное имя : An.Ideal.Husband.1999.x264.BDRip-AVC.0ptimus.mkv
Формат : Matroska
Версия формата : Version 2
Размер файла : 2,01 Гбайт
Продолжительность : 1 ч. 37 м.
Общий поток : 2943 Кбит/сек
Название фильма : Идеальный муж | An Ideal Husband [1999] -= BDRip-AVC by 0ptimus=-
Дата кодирования : UTC 2014-07-19 04:14:53
Программа кодирования : mkvmerge v6.6.0 ('The Edge Of The In Between') built on Dec 1 2013 17:55:00
Библиотека кодирования : libebml v1.3.0 + libmatroska v1.4.1
Видео
Идентификатор : 1
Формат : AVC
Формат/Информация : Advanced Video Codec
Профиль формата : High@L4.1
Параметр CABAC формата : Да
Параметр ReFrames формата : 9 кадров
Идентификатор кодека : V_MPEG4/ISO/AVC
Продолжительность : 1 ч. 37 м.
Битрейт : 2173 Кбит/сек
Ширина : 1024 пикселя
Высота : 554 пикселя
Соотношение сторон : 1,85:1
Режим частоты кадров : Постоянный
Частота кадров : 24,000 кадра/сек
Цветовое пространство : YUV
Субдискретизация насыщенности : 4:2:0
Битовая глубина : 8 бит
Тип развёртки : Прогрессивная
Бит/(Пиксели*Кадры) : 0.160
Размер потока : 1,45 Гбайт (72%)
Заголовок : Rip by 0ptimus
Библиотека кодирования : x264 core 133 r2334 a3ac64b
Настройки программы : cabac=1 / ref=9 / deblock=1:-2:-1 / analyse=0x3:0x113 / me=umh / subme=11 / psy=1 / psy_rd=1.00:0.20 / mixed_ref=1 / me_range=48 / chroma_me=1 / trellis=2 / 8x8dct=1 / cqm=0 / deadzone=21,11 / fast_pskip=0 / chroma_qp_offset=-3 / threads=6 / lookahead_threads=1 / sliced_threads=0 / nr=0 / decimate=0 / interlaced=0 / bluray_compat=0 / constrained_intra=0 / bframes=11 / b_pyramid=2 / b_adapt=2 / b_bias=0 / direct=3 / weightb=1 / open_gop=0 / weightp=2 / keyint=240 / keyint_min=23 / scenecut=40 / intra_refresh=0 / rc_lookahead=40 / rc=2pass / mbtree=0 / bitrate=2173 / ratetol=1.0 / qcomp=0.60 / qpmin=0 / qpmax=69 / qpstep=4 / cplxblur=20.0 / qblur=0.5 / vbv_maxrate=50000 / vbv_bufsize=50000 / nal_hrd=none / ip_ratio=1.40 / pb_ratio=1.30 / aq=1:1.00
Язык : English
Default : Да
Forced : Да
Аудио #1
Идентификатор : 2
Формат : AC-3
Формат/Информация : Audio Coding 3
Расширение режима : CM (complete main)
Параметр Endianness формата : Big
Идентификатор кодека : A_AC3
Продолжительность : 1 ч. 37 м.
Вид битрейта : Постоянный
Битрейт : 384 Кбит/сек
Каналы : 6 каналов
Расположение каналов : Front: L C R, Side: L R, LFE
Частота : 48,0 КГц
Битовая глубина : 16 бит
Метод сжатия : С потерями
Размер потока : 269 Мбайт (13%)
Заголовок : Многоголосый закадровый AC3 5.1 384 kbps
Язык : Russian
Default : Да
Forced : Да
Аудио #2
Идентификатор : 3
Формат : AC-3
Формат/Информация : Audio Coding 3
Расширение режима : CM (complete main)
Параметр Endianness формата : Big
Идентификатор кодека : A_AC3
Продолжительность : 1 ч. 37 м.
Вид битрейта : Постоянный
Битрейт : 384 Кбит/сек
Каналы : 6 каналов
Расположение каналов : Front: L C R, Side: L R, LFE
Частота : 48,0 КГц
Битовая глубина : 16 бит
Метод сжатия : С потерями
Размер потока : 269 Мбайт (13%)
Заголовок : AC3 5.1 384 kbps
Язык : English
Default : Нет
Forced : Нет
Текст #1
Идентификатор : 4
Формат : UTF-8
Идентификатор кодека : S_TEXT/UTF8
Идентификатор кодека/Информация : UTF-8 Plain Text
Язык : Russian
Default : Нет
Forced : Нет
Текст #2
Идентификатор : 5
Формат : UTF-8
Идентификатор кодека : S_TEXT/UTF8
Идентификатор кодека/Информация : UTF-8 Plain Text
Язык : English
Default : Нет
Forced : Нет
Меню
00:00:00.000 : en:00:00:00.000
00:02:32.042 : en:00:02:32.042
00:05:24.750 : en:00:05:24.750
00:10:34.417 : en:00:10:34.417
00:17:53.542 : en:00:17:53.542
00:26:50.792 : en:00:26:50.792
00:33:11.375 : en:00:33:11.375
00:37:36.250 : en:00:37:36.250
00:44:12.833 : en:00:44:12.833
00:53:48.500 : en:00:53:48.500
01:01:56.667 : en:01:01:56.667
01:12:46.500 : en:01:12:46.500
01:19:36.375 : en:01:19:36.375
01:32:03.958 : en:01:32:03.958
01:33:02.708 : en:01:33:02.708

Скриншоты



Релиз от:
[Профиль] [ЛС]
Показать сообщения:    

Текущее время: Сегодня 18:58

Часовой пояс: GMT



Вы не можете начинать темы
Вы не можете отвечать на сообщения
Вы не можете редактировать свои сообщения
Вы не можете удалять свои сообщения
Вы не можете голосовать в опросах
Вы не можете прикреплять файлы к сообщениям
Вы не можете скачивать файлы