Идеальный мужчина / Un homme idéal (2015) BDRip 720p | Р, A | Line

 
Автор Сообщение

BOSS ®

Пол:

Стаж: 2 года 2 месяца

Сообщений: 3748

Откуда: ODESSA



Награды: 20 (Подробнее)

Top Seeder 4 (Количество: 1) За внесенный вклад в развитие сайта (Количество: 1) Mega Releaser 1 (Количество: 1)
Торрент-статистика

Создавать темы 18-Сен-2016 16:50

[Цитировать]

Информация о фильме
Название: Идеальный мужчина
Оригинальное название: Un homme idéal
Год выхода: 2015
Жанр: Триллер
Режиссер: Ян Гозлан
В ролях: Пьер Нинэ, Ана Жирардо, Андре Маркон, Валерия Кавалли, Тибо Винсон, Марк Барбе, Саша Мийович, Эрик Савен, Люк Энтони, Сория Муфаккир
О фильме:
Матьё мечтает стать писателем. Однако, несмотря на все усилия, издатели неизменно отвечают ему отказом, возвращая рукопись. Все меняется, когда однажды он находит потрепанный военный дневник умершего участника Алжирской войны, и решение приходит само собой...

Выпущено: Франция / 2425 Films, Angoa-Agicoa, Backup Media, CNC, Ciné, HD1, TF1
Продолжительность: 01:43:10
Перевод: Профессиональный многоголосый (Line), авторский
Файл
Формат: MKV
Качество: BDRip 720p
Видео: MPEG-4 AVC, 5890 Кбит/с, 1280x536
Аудио: Русский (АС3, 2 ch, 192 Кбит/с) MVO - Официальный звук
Аудио: Русский (АС3, 6 ch, 640 Кбит/с) AVO - А. Алексеев
Аудио: Французский (DTS, 6 ch, 1509 Кбит/с) Original
Субтитры: Русские, французские
Семпл

MI

Общее
Уникальный идентификатор : 241017857836391524144069288663344218375 (0xB55259D81DACE1E0B262A47EB4580107)
Полное имя : E:Раздача-BDRipIdealnyi_muzhchyna.2015.BDRip.720p_Sborka_grab777.mkv
Формат : Matroska
Версия формата : Version 2
Размер файла : 5,93 Гбайт
Продолжительность : 1 ч. 43 м.
Общий поток : 8233 Кбит/сек
Название фильма : Идеальный мужчина (2015) BDRip 720p Сборка grab777
Дата кодирования : UTC 2016-09-18 11:13:03
Программа кодирования : mkvmerge v5.8.0 ('No Sleep / Pillow') built on Sep 2 2012 15:37:04
Библиотека кодирования : libebml v1.2.3 + libmatroska v1.3.0
Видео
Идентификатор : 1
Формат : AVC
Формат/Информация : Advanced Video Codec
Профиль формата : High@L4.1
Параметр CABAC формата : Да
Параметр ReFrames формата : 12 кадров
Идентификатор кодека : V_MPEG4/ISO/AVC
Продолжительность : 1 ч. 43 м.
Битрейт : 5890 Кбит/сек
Ширина : 1280 пикселей
Высота : 536 пикселей
Соотношение сторон : 2,40:1
Режим частоты кадров : Постоянный
Частота кадров : 24,000 кадра/сек
Цветовое пространство : YUV
Субдискретизация насыщенности : 4:2:0
Битовая глубина : 8 бит
Тип развёртки : Прогрессивная
Бит/(Пиксели*Кадры) : 0.358
Размер потока : 4,13 Гбайт (70%)
Заголовок : Video_ylnian_Sborka_grab777
Библиотека кодирования : x264 core 129 r2230 1cffe9f
Настройки программы : cabac=1 / ref=12 / deblock=1:-3:-3 / analyse=0x3:0x133 / me=umh / subme=11 / psy=1 / psy_rd=1.00:0.15 / mixed_ref=1 / me_range=24 / chroma_me=1 / trellis=2 / 8x8dct=1 / cqm=0 / deadzone=21,11 / fast_pskip=0 / chroma_qp_offset=-5 / threads=12 / lookahead_threads=2 / sliced_threads=0 / nr=0 / decimate=1 / interlaced=0 / bluray_compat=0 / constrained_intra=0 / bframes=11 / b_pyramid=2 / b_adapt=2 / b_bias=0 / direct=2 / weightb=1 / open_gop=0 / weightp=2 / keyint=230 / keyint_min=23 / scenecut=40 / intra_refresh=0 / rc_lookahead=60 / rc=2pass / mbtree=1 / bitrate=5890 / ratetol=1.0 / qcomp=0.60 / qpmin=0 / qpmax=69 / qpstep=4 / cplxblur=20.0 / qblur=0.5 / ip_ratio=1.40 / aq=2:1.00
Язык : French
Default : Да
Forced : Да
Аудио #1
Идентификатор : 2
Формат : AC-3
Формат/Информация : Audio Coding 3
Расширение режима : CM (complete main)
Параметр Endianness формата : Big
Идентификатор кодека : A_AC3
Продолжительность : 1 ч. 43 м.
Вид битрейта : Постоянный
Битрейт : 192 Кбит/сек
Каналы : 2 канала
Расположение каналов : Front: L R
Частота : 48,0 КГц
Битовая глубина : 16 бит
Метод сжатия : С потерями
Размер потока : 142 Мбайт (2%)
Заголовок : MVO
Язык : Russian
Default : Да
Forced : Нет
Аудио #2
Идентификатор : 3
Формат : AC-3
Формат/Информация : Audio Coding 3
Расширение режима : CM (complete main)
Параметр Endianness формата : Big
Идентификатор кодека : A_AC3
Продолжительность : 1 ч. 43 м.
Вид битрейта : Постоянный
Битрейт : 640 Кбит/сек
Каналы : 6 каналов
Расположение каналов : Front: L C R, Side: L R, LFE
Частота : 48,0 КГц
Битовая глубина : 16 бит
Метод сжатия : С потерями
Размер потока : 472 Мбайт (8%)
Заголовок : AVO (А. Алексеев)
Язык : Russian
Default : Нет
Forced : Нет
Аудио #3
Идентификатор : 4
Формат : DTS
Формат/Информация : Digital Theater Systems
Режим : 16
Параметр Endianness формата : Big
Идентификатор кодека : A_DTS
Продолжительность : 1 ч. 43 м.
Вид битрейта : Постоянный
Битрейт : 1509 Кбит/сек
Каналы : 6 каналов
Расположение каналов : Front: L C R, Side: L R, LFE
Частота : 48,0 КГц
Битовая глубина : 16 бит
Метод сжатия : С потерями
Размер потока : 1,09 Гбайт (18%)
Заголовок : Original
Язык : French
Default : Нет
Forced : Нет
Текст #1
Идентификатор : 5
Формат : UTF-8
Идентификатор кодека : S_TEXT/UTF8
Идентификатор кодека/Информация : UTF-8 Plain Text
Заголовок : by Oksanchic2013
Язык : Russian
Default : Нет
Forced : Нет
Текст #2
Идентификатор : 6
Формат : UTF-8
Идентификатор кодека : S_TEXT/UTF8
Идентификатор кодека/Информация : UTF-8 Plain Text
Язык : French
Default : Нет
Forced : Нет
Меню
00:00:00.000 : fr:00:00:00.000
00:11:04.833 : fr:00:11:04.833
00:23:29.000 : fr:00:23:29.000
00:39:31.500 : fr:00:39:31.500
00:51:38.208 : fr:00:51:38.208
01:03:35.958 : fr:01:03:35.958
01:13:53.125 : fr:01:13:53.125
01:26:06.417 : fr:01:26:06.417
01:34:21.542 : fr:01:34:21.542

О релизе

Видео ряд: ylnian
Сборка: grab777
Перевод: Профессиональный многоголосый (Официальный звук)
Перевод: Авторский (А. Алексеев)

Скриншоты

Релиз от:
[Профиль] [ЛС]
Показать сообщения:    

Текущее время: Сегодня 07:13

Часовой пояс: GMT



Вы не можете начинать темы
Вы не можете отвечать на сообщения
Вы не можете редактировать свои сообщения
Вы не можете удалять свои сообщения
Вы не можете голосовать в опросах
Вы не можете прикреплять файлы к сообщениям
Вы не можете скачивать файлы