Идеальный мужчина / Un homme idéal (Ян Гозлан) [2015, Франция, триллер, драма, BDRip] VO (Владислав Вайтар) + Original Fre

 
Автор Сообщение

TorrentFilm ®

Пол:

Стаж: 1 год 11 месяцев

Сообщений: 7741



Награды: Нет

Торрент-статистика

Создавать темы 17-Авг-2015 00:08

[Цитировать]

Идеальный мужчина / Un homme idéal- Страна: Франция
Жанр: триллер, драма
Год выпуска: 2015
Продолжительность: 01:43:10-Озвучание: Одноголосый закадровый Владислав Вайтар-Cубтитры: нет
Оригинальная аудиодорожка: французский-Режиссер: Ян Гозлан / Yann Gozlan-В ролях: Пьер Нинэ, Ана Жирардо, Андре Маркон, Тибо Винсон, Валерия Кавалли, Марк Барбе-Описание: 26-летний Матьё мечтает стать известным писателем. Однако, несмотря на все творческие усилия, французские издательства бесконечно отказывают, возвращая рукопись. Все меняется, когда однажды он находит потрепанный военный дневник умершего участника Алжирской войны, и решение приходит само собой, круговорот событий которого не щадит ни Матьё, ни его близких...-Спасибо за перевод фильма на русский язык - Oksana (oksanchic2013).-Сэмпл: http://sendfile.su/1146288
Качество видео: BDRip [Исходник: Un.homme.ideal.2015.FRENCH.COMPLETE.BLURAY-MELBA]
Формат видео: AVI
Видео: MPEG-4, Xvid 720x304 24fps 1455kbps
Аудио: MP3 48000Hz stereo 192kbps
Аудио 2: Dolby AC3 48000Hz 6ch 448kbps

MediaInfo

General
Format : AVI
Format/Info : Audio Video Interleave
File size : 1.52 GiB
Duration : 1h 43mn
Overall bit rate : 2 109 Kbps
Writing application : VirtualDubModRus 1.5.10.2 (build 2540/release)
Writing library : VirtualDubMod build 2540/release
Video
ID : 0
Format : MPEG-4 Visual
Format profile : Advanced Simple@L5
Format settings, BVOP : 2
Format settings, QPel : Yes
Format settings, GMC : No warppoints
Format settings, Matrix : Default (H.263)
Codec ID : XVID
Codec ID/Hint : XviD
Duration : 1h 43mn
Bit rate : 1 455 Kbps
Width : 720 pixels
Height : 304 pixels
Display aspect ratio : 2.35:1
Frame rate : 24.000 fps
Color space : YUV
Chroma subsampling : 4:2:0
Bit depth : 8 bits
Scan type : Progressive
Compression mode : Lossy
Bits/(Pixel*Frame) : 0.277
Stream size : 1.05 GiB (69%)
Writing library : XviD 1.2.1 (UTC 2008-12-04)
Audio #1
ID : 1
Format : MPEG Audio
Format version : Version 1
Format profile : Layer 3
Codec ID : 55
Codec ID/Hint : MP3
Duration : 1h 43mn
Bit rate mode : Constant
Bit rate : 192 Kbps
Channel(s) : 2 channels
Sampling rate : 48.0 KHz
Compression mode : Lossy
Stream size : 142 MiB (9%)
Alignment : Aligned on interleaves
Interleave, duration : 42 ms (1.00 video frame)
Interleave, preload duratio : 504 ms
Audio #2
ID : 2
Format : AC-3
Format/Info : Audio Coding 3
Mode extension : CM (complete main)
Format settings, Endianness : Big
Codec ID : 2000
Duration : 1h 43mn
Bit rate mode : Constant
Bit rate : 448 Kbps
Channel(s) : 6 channels
Channel positions : Front: L C R, Side: L R, LFE
Sampling rate : 48.0 KHz
Bit depth : 16 bits
Compression mode : Lossy
Stream size : 331 MiB (21%)
Alignment : Split accross interleaves
Interleave, duration : 42 ms (1.00 video frame)
Interleave, preload duratio : 500 ms

Скриншот c названием фильма

Скриншоты

[Профиль] [ЛС]
Показать сообщения:    

Текущее время: Сегодня 18:21

Часовой пояс: GMT



Вы не можете начинать темы
Вы не можете отвечать на сообщения
Вы не можете редактировать свои сообщения
Вы не можете удалять свои сообщения
Вы не можете голосовать в опросах
Вы не можете прикреплять файлы к сообщениям
Вы не можете скачивать файлы