Идеальный мужчина / Un homme ideal (Ян Гозлан / Yann Gozlan) [2015, Франция, триллер, драма, DVDRip] Sub Rus + Original Fre

 
Автор Сообщение

TorrentFilm ®

Пол:

Стаж: 1 год 11 месяцев

Сообщений: 7741



Награды: Нет

Торрент-статистика

Создавать темы 15-Авг-2015 00:08

[Цитировать]

Идеальный мужчина / Un homme idéal
Страна: Франция
Жанр: триллер, драма
Год выпуска: 2015
Продолжительность: 01:43:10
Перевод: Субтитры
Cубтитры: русские
Оригинальная аудиодорожка: французский
Режиссер: Ян Гозлан / Yann Gozlan
В ролях: Пьер Нинэ, Ана Жирардо, Андре Маркон, Тибо Винсон
Описание: Матьё мечтает стать писателем. Однако, несмотря на все усилия, издатели неизменно отвечают ему отказом, возвращая рукопись. Все меняется, когда однажды он находит потрепанный военный дневник, и решение приходит само собой...
Доп. информация: Трейлер: http://www.youtube.com/watch?v=YrWxCFktVVc
Перевод фильма - Oksana (oksanchic2013)
Рип - soso4eg (Катя, спасибо!)
Сэмпл: http://multi-up.com/1062500
Качество видео: DVDRip
Формат видео: AVI
Видео: 720x304 (2.37:1), 24.000 fps, XviD build 50 ~1563 kbps avg, 0.30 bit/pixel
Аудио: 48 kHz, AC3 Dolby Digital, 3/2 (L,C,R,l,r) + LFE ch, ~448 kbps
Формат субтитров: hardsub (неотключаемые)

MediaInfo

Общее
Полное имя : D:\Оксана\Videos\Un homme ideal.avi
Формат : AVI
Формат/Информация : Audio Video Interleave
Размер файла : 1,46 Гбайт
Продолжительность : 1 ч. 43 м.
Общий поток : 2021 Кбит/сек
Программа кодирования : VirtualDubMod 1.5.10.2 (build 2540/release)
Библиотека кодирования : VirtualDubMod build 2540/release
Видео
Идентификатор : 0
Формат : MPEG-4 Visual
Профиль формата : Advanced Simple@L5
Параметр BVOP формата : 1
Параметр QPel формата : Нет
Параметр GMC формата : Без точки перехода
Параметр матрицы формата : Default (MPEG)
Идентификатор кодека : XVID
Идентификатор кодека/Подсказка : XviD
Продолжительность : 1 ч. 43 м.
Битрейт : 1563 Кбит/сек
Ширина : 720 пикселей
Высота : 304 пикселя
Соотношение сторон : 2,35:1
Частота кадров : 24,000 кадра/сек
Цветовое пространство : YUV
Субдискретизация насыщенности : 4:2:0
Битовая глубина : 8 бит
Тип развёртки : Прогрессивная
Метод сжатия : С потерями
Бит/(Пиксели*Кадры) : 0.298
Размер потока : 1,13 Гбайт (77%)
Библиотека кодирования : XviD 1.2.1 (UTC 2008-12-04)
Аудио
Идентификатор : 1
Формат : AC-3
Формат/Информация : Audio Coding 3
Расширение режима : CM (complete main)
Параметр Endianness формата : Big
Идентификатор кодека : 2000
Продолжительность : 1 ч. 43 м.
Вид битрейта : Постоянный
Битрейт : 448 Кбит/сек
Каналы : 6 каналов
Расположение каналов : Front: L C R, Side: L R, LFE
Частота : 48,0 КГц
Битовая глубина : 16 бит
Метод сжатия : С потерями
Размер потока : 331 Мбайт (22%)
Выравнивание : Соединение по промежуткам
Продолжительность промежутка : 42 мс. (1,00 видеокадр)
Время предзагрузки промежутка : 512 мс.

Скриншот c названием фильма

[Профиль] [ЛС]
Показать сообщения:    

Текущее время: Сегодня 00:35

Часовой пояс: GMT



Вы не можете начинать темы
Вы не можете отвечать на сообщения
Вы не можете редактировать свои сообщения
Вы не можете удалять свои сообщения
Вы не можете голосовать в опросах
Вы не можете прикреплять файлы к сообщениям
Вы не можете скачивать файлы