Идеальный день / A Perfect Day (2015) BDRip 1080p | L

 
Автор Сообщение

BOSS ®

Пол:

Стаж: 2 года 1 месяц

Сообщений: 3735

Откуда: ODESSA



Награды: 20 (Подробнее)

Top Keeper 3 (Количество: 1) Top Seeder 4 (Количество: 1) Mega Releaser 3 (Количество: 1)
Торрент-статистика

Создавать темы 03-Май-2016 15:46

[Цитировать]

Информация о фильме
Название: Идеальный день
Оригинальное название: A Perfect Day
Год выхода: 2015
Жанр: драма
Режиссер: Фернандо Леон Де Араноа
В ролях: Бенисио Дель Торо, Тим Роббинс, Ольга Куриленко, Мелани Тьерри, Федя Стукан, Eldar Residovic, Серхи Лопес, Ненад Вукелич, Франк Фейс, Мортен Суурбалле
О фильме: Группа сотрудников гуманитарной службы пытается достать труп из колодца в зоне конфликта. Кто-то бросил туда тело, чтобы отравить воду, и местные люди мучаются от жажды. Задача, которая кажется простейшей, превращается в невыполнимую миссию, в которой злейший враг — иррациональность. Работники пересекают местность, охваченную войной, пытаясь решить эту проблему.

Выпущено: Испания / Mediapro, Reposado Producciones, Televisión Española (TVE)
Продолжительность: 01:45:47
Озвучивание: Любительское (многоголосное) [студия "Paradox" & "Omskbird records"]
Роли озвучивали: Анна Тух, Максим Максимов, Павел Ярощик, Константин Погодаев и Александр Дасевич
Перевод: Никита Коваль
Примечание: Релиз без рекламы.
Файл
Формат: MKV
Качество: BDRip 1080p
Видео: MPEG-4 AVC, 9579 kb/s, 1920x804
Аудио: Russian: AC3, 448 kb/s (6 ch) / English: DTS, 1510 kb/s (6 ch)
Субтитры: English

MI

Общее
Уникальный идентификатор : 222482021910635755310980430674710972759 (0xA7607A93327BCF04ADDAF3779D034957)
Полное имя : D:загрузкиA.Perfect.Day.2015.1080p.BluRay.mkv
Формат : Matroska
Версия формата : Version 4 / Version 2
Размер файла : 8,72 Гбайт
Продолжительность : 1 ч. 46 м.
Общий поток : 11,8 Мбит/сек
Название фильма : A.Perfect.Day.2015.1080p.BluRay
Дата кодирования : UTC 2016-05-03 12:45:28
Программа кодирования : mkvmerge v8.3.0 ('Over the Horizon') 64bit
Библиотека кодирования : libebml v1.3.1 + libmatroska v1.4.2
DURATION : 01:36:19.849000000
NUMBER_OF_FRAMES : 1115
NUMBER_OF_BYTES : 40008
_STATISTICS_WRITING_APP : mkvmerge v8.3.0 ('Over the Horizon') 64bit
_STATISTICS_WRITING_DATE_UTC : 2016-05-03 12:45:28
_STATISTICS_TAGS : BPS DURATION NUMBER_OF_FRAMES NUMBER_OF_BYTES
Видео
Идентификатор : 1
Формат : AVC
Формат/Информация : Advanced Video Codec
Профиль формата : High@L4.1
Параметр CABAC формата : Да
Параметр ReFrames формата : 5 кадров
Идентификатор кодека : V_MPEG4/ISO/AVC
Продолжительность : 1 ч. 46 м.
Битрейт : 9579 Кбит/сек
Ширина : 1920 пикселей
Высота : 804 пикселя
Соотношение сторон : 2,40:1
Режим частоты кадров : Постоянный
Частота кадров : 24,000 кадра/сек
Цветовое пространство : YUV
Субдискретизация насыщенности : 4:2:0
Битовая глубина : 8 бит
Тип развёртки : Прогрессивная
Бит/(Пиксели*Кадры) : 0.259
Размер потока : 7,10 Гбайт (81%)
Библиотека кодирования : x264 core 146 r2538 121396c
Настройки программы : cabac=1 / ref=5 / deblock=1:-3:-3 / analyse=0x3:0x133 / me=tesa / subme=11 / psy=1 / psy_rd=1.04:0.00 / mixed_ref=1 / me_range=32 / chroma_me=1 / trellis=2 / 8x8dct=1 / cqm=0 / deadzone=21,11 / fast_pskip=0 / chroma_qp_offset=-2 / threads=48 / lookahead_threads=6 / sliced_threads=0 / nr=0 / decimate=0 / interlaced=0 / bluray_compat=0 / constrained_intra=0 / bframes=12 / b_pyramid=2 / b_adapt=2 / b_bias=0 / direct=3 / weightb=1 / open_gop=0 / weightp=2 / keyint=240 / keyint_min=24 / scenecut=40 / intra_refresh=0 / rc_lookahead=150 / rc=crf / mbtree=0 / crf=18.0 / qcomp=0.60 / qpmin=0 / qpmax=69 / qpstep=4 / vbv_maxrate=62500 / vbv_bufsize=78125 / crf_max=0.0 / nal_hrd=none / filler=0 / ip_ratio=1.40 / pb_ratio=1.30 / aq=1:0.80
Default : Да
Forced : Нет
Аудио #1
Идентификатор : 2
Формат : AC-3
Формат/Информация : Audio Coding 3
Расширение режима : CM (complete main)
Параметр Endianness формата : Big
Идентификатор кодека : A_AC3
Продолжительность : 1 ч. 46 м.
Вид битрейта : Постоянный
Битрейт : 448 Кбит/сек
Каналы : 6 каналов
Расположение каналов : Front: L C R, Side: L R, LFE
Частота : 48,0 КГц
Битовая глубина : 16 бит
Метод сжатия : С потерями
Размер потока : 340 Мбайт (4%)
Язык : Russian
Default : Да
Forced : Нет
Аудио #2
Идентификатор : 3
Формат : DTS
Формат/Информация : Digital Theater Systems
Режим : 16
Параметр Endianness формата : Big
Идентификатор кодека : A_DTS
Продолжительность : 1 ч. 46 м.
Вид битрейта : Постоянный
Битрейт : 1509 Кбит/сек
Каналы : 6 каналов
Расположение каналов : Front: L C R, Side: L R, LFE
Частота : 48,0 КГц
Битовая глубина : 24 бит
Метод сжатия : С потерями
Размер потока : 1,12 Гбайт (13%)
Язык : English
Default : Нет
Forced : Нет
Текст
Идентификатор : 4
Формат : UTF-8
Идентификатор кодека : S_TEXT/UTF8
Идентификатор кодека/Информация : UTF-8 Plain Text
Язык : English
Default : Нет
Forced : Нет
Меню
00:00:00.000 : en:Chapter 1
00:09:28.417 : en:Chapter 2
00:17:44.208 : en:Chapter 3
00:29:31.292 : en:Chapter 4
00:40:15.625 : en:Chapter 5
00:50:56.292 : en:Chapter 6
00:58:54.458 : en:Chapter 7
01:05:34.667 : en:Chapter 8
01:21:28.000 : en:Chapter 9
01:26:43.500 : en:Chapter 10
01:32:09.583 : en:Chapter 11
01:42:07.125 : en:Chapter 12

Скриншоты




[Профиль] [ЛС]
Показать сообщения:    

Текущее время: Сегодня 00:31

Часовой пояс: GMT



Вы не можете начинать темы
Вы не можете отвечать на сообщения
Вы не можете редактировать свои сообщения
Вы не можете удалять свои сообщения
Вы не можете голосовать в опросах
Вы не можете прикреплять файлы к сообщениям
Вы не можете скачивать файлы